  0
SECTION
  2
HEADER
  9
$ACADVER
  1
AC1015
  9
$ACADMAINTVER
 70
     6
  9
$DWGCODEPAGE
  3
ANSI_1252
  9
$INSBASE
 10
0.0
 20
0.0
 30
0.0
  9
$EXTMIN
 10
0.0
 20
0.0
 30
0.0
  9
$EXTMAX
 10
420.0
 20
297.0
 30
0.0
  9
$LIMMIN
 10
0.0
 20
0.0
  9
$LIMMAX
 10
420.0
 20
297.0
  9
$ORTHOMODE
 70
     0
  9
$REGENMODE
 70
     1
  9
$FILLMODE
 70
     1
  9
$QTEXTMODE
 70
     0
  9
$MIRRTEXT
 70
     1
  9
$LTSCALE
 40
1.0
  9
$ATTMODE
 70
     1
  9
$TEXTSIZE
 40
0.2
  9
$TRACEWID
 40
0.05
  9
$TEXTSTYLE
  7
Standard
  9
$CLAYER
  8
0
  9
$CELTYPE
  6
ByLayer
  9
$CECOLOR
 62
   256
  9
$CELTSCALE
 40
25.4
  9
$DISPSILH
 70
     0
  9
$DIMSCALE
 40
1.0
  9
$DIMASZ
 40
0.18
  9
$DIMEXO
 40
0.0625
  9
$DIMDLI
 40
0.38
  9
$DIMRND
 40
0.0
  9
$DIMDLE
 40
0.0
  9
$DIMEXE
 40
0.18
  9
$DIMTP
 40
0.0
  9
$DIMTM
 40
0.0
  9
$DIMTXT
 40
0.18
  9
$DIMCEN
 40
0.09
  9
$DIMTSZ
 40
0.0
  9
$DIMTOL
 70
     0
  9
$DIMLIM
 70
     0
  9
$DIMTIH
 70
     1
  9
$DIMTOH
 70
     1
  9
$DIMSE1
 70
     0
  9
$DIMSE2
 70
     0
  9
$DIMTAD
 70
     0
  9
$DIMZIN
 70
     0
  9
$DIMBLK
  1

  9
$DIMASO
 70
     1
  9
$DIMSHO
 70
     1
  9
$DIMPOST
  1

  9
$DIMAPOST
  1

  9
$DIMALT
 70
     0
  9
$DIMALTD
 70
     2
  9
$DIMALTF
 40
25.4
  9
$DIMLFAC
 40
1.0
  9
$DIMTOFL
 70
     0
  9
$DIMTVP
 40
0.0
  9
$DIMTIX
 70
     0
  9
$DIMSOXD
 70
     0
  9
$DIMSAH
 70
     0
  9
$DIMBLK1
  1

  9
$DIMBLK2
  1

  9
$DIMSTYLE
  2
Standard
  9
$DIMCLRD
 70
     0
  9
$DIMCLRE
 70
     0
  9
$DIMCLRT
 70
     0
  9
$DIMTFAC
 40
1.0
  9
$DIMGAP
 40
0.09
  9
$DIMJUST
 70
     0
  9
$DIMSD1
 70
     0
  9
$DIMSD2
 70
     0
  9
$DIMTOLJ
 70
     1
  9
$DIMTZIN
 70
     0
  9
$DIMALTZ
 70
     0
  9
$DIMALTTZ
 70
     0
  9
$DIMUPT
 70
     0
  9
$DIMDEC
 70
     4
  9
$DIMTDEC
 70
     4
  9
$DIMALTU
 70
     2
  9
$DIMALTTD
 70
     2
  9
$DIMTXSTY
  7
Standard
  9
$DIMAUNIT
 70
     0
  9
$DIMADEC
 70
     0
  9
$DIMALTRND
 40
0.0
  9
$DIMAZIN
 70
     0
  9
$DIMDSEP
 70
    46
  9
$DIMATFIT
 70
     3
  9
$DIMFRAC
 70
     0
  9
$DIMLDRBLK
  1

  9
$DIMLUNIT
 70
     2
  9
$DIMLWD
 70
    -2
  9
$DIMLWE
 70
    -2
  9
$DIMTMOVE
 70
     0
  9
$LUNITS
 70
     2
  9
$LUPREC
 70
     4
  9
$SKETCHINC
 40
0.1
  9
$FILLETRAD
 40
0.5
  9
$AUNITS
 70
     0
  9
$AUPREC
 70
     0
  9
$MENU
  1
.
  9
$ELEVATION
 40
0.0
  9
$PELEVATION
 40
0.0
  9
$THICKNESS
 40
0.0
  9
$LIMCHECK
 70
     0
  9
$CHAMFERA
 40
0.5
  9
$CHAMFERB
 40
0.5
  9
$CHAMFERC
 40
1.0
  9
$CHAMFERD
 40
0.0
  9
$SKPOLY
 70
     0
  9
$TDCREATE
 40
2456974.466754931
  9
$TDUCREATE
 40
2456974.675088264
  9
$TDUPDATE
 40
2456974.466754942
  9
$TDUUPDATE
 40
2456974.675088276
  9
$TDINDWG
 40
0.0000000116
  9
$TDUSRTIMER
 40
0.0000000116
  9
$USRTIMER
 70
     1
  9
$ANGBASE
 50
0.0
  9
$ANGDIR
 70
     0
  9
$PDMODE
 70
     0
  9
$PDSIZE
 40
0.0
  9
$PLINEWID
 40
0.0
  9
$SPLFRAME
 70
     0
  9
$SPLINETYPE
 70
     6
  9
$SPLINESEGS
 70
     8
  9
$HANDSEED
  5
166
  9
$SURFTAB1
 70
     6
  9
$SURFTAB2
 70
     6
  9
$SURFTYPE
 70
     6
  9
$SURFU
 70
     6
  9
$SURFV
 70
     6
  9
$UCSBASE
  2

  9
$UCSNAME
  2

  9
$UCSORG
 10
0.0
 20
0.0
 30
0.0
  9
$UCSXDIR
 10
1.0
 20
0.0
 30
0.0
  9
$UCSYDIR
 10
0.0
 20
1.0
 30
0.0
  9
$UCSORTHOREF
  2

  9
$UCSORTHOVIEW
 70
     0
  9
$UCSORGTOP
 10
0.0
 20
0.0
 30
0.0
  9
$UCSORGBOTTOM
 10
0.0
 20
0.0
 30
0.0
  9
$UCSORGLEFT
 10
0.0
 20
0.0
 30
0.0
  9
$UCSORGRIGHT
 10
0.0
 20
0.0
 30
0.0
  9
$UCSORGFRONT
 10
0.0
 20
0.0
 30
0.0
  9
$UCSORGBACK
 10
0.0
 20
0.0
 30
0.0
  9
$PUCSBASE
  2

  9
$PUCSNAME
  2

  9
$PUCSORG
 10
0.0
 20
0.0
 30
0.0
  9
$PUCSXDIR
 10
1.0
 20
0.0
 30
0.0
  9
$PUCSYDIR
 10
0.0
 20
1.0
 30
0.0
  9
$PUCSORTHOREF
  2

  9
$PUCSORTHOVIEW
 70
     0
  9
$PUCSORGTOP
 10
0.0
 20
0.0
 30
0.0
  9
$PUCSORGBOTTOM
 10
0.0
 20
0.0
 30
0.0
  9
$PUCSORGLEFT
 10
0.0
 20
0.0
 30
0.0
  9
$PUCSORGRIGHT
 10
0.0
 20
0.0
 30
0.0
  9
$PUCSORGFRONT
 10
0.0
 20
0.0
 30
0.0
  9
$PUCSORGBACK
 10
0.0
 20
0.0
 30
0.0
  9
$USERI1
 70
     0
  9
$USERI2
 70
     0
  9
$USERI3
 70
     0
  9
$USERI4
 70
     0
  9
$USERI5
 70
     0
  9
$USERR1
 40
0.0
  9
$USERR2
 40
0.0
  9
$USERR3
 40
0.0
  9
$USERR4
 40
0.0
  9
$USERR5
 40
0.0
  9
$WORLDVIEW
 70
     1
  9
$SHADEDGE
 70
     3
  9
$SHADEDIF
 70
    70
  9
$TILEMODE
 70
     1
  9
$MAXACTVP
 70
    64
  9
$PINSBASE
 10
0.0
 20
0.0
 30
0.0
  9
$PLIMCHECK
 70
     0
  9
$PEXTMIN
 10
0.0
 20
0.0
 30
0.0
  9
$PEXTMAX
 10
420.0
 20
297.0
 30
0.0
  9
$PLIMMIN
 10
0.0
 20
0.0
  9
$PLIMMAX
 10
420.0
 20
297.0
  9
$UNITMODE
 70
     0
  9
$VISRETAIN
 70
     1
  9
$PLINEGEN
 70
     0
  9
$PSLTSCALE
 70
     1
  9
$TREEDEPTH
 70
  3020
  9
$CMLSTYLE
  2
Standard
  9
$CMLJUST
 70
     0
  9
$CMLSCALE
 40
1.0
  9
$PROXYGRAPHICS
 70
     1
  9
$MEASUREMENT
 70
     1
  9
$CELWEIGHT
370
    -1
  9
$ENDCAPS
280
     0
  9
$JOINSTYLE
280
     0
  9
$LWDISPLAY
290
     0
  9
$INSUNITS
 70
     1
  9
$HYPERLINKBASE
  1

  9
$STYLESHEET
  1

  9
$XEDIT
290
     1
  9
$CEPSNTYPE
380
     0
  9
$PSTYLEMODE
290
     1
  9
$FINGERPRINTGUID
  2
{82805381-D7A1-4FDC-957A-D16009E6ED68}
  9
$VERSIONGUID
  2
{FAEB1C32-E019-11D5-929B-00C0DF256EC4}
  9
$EXTNAMES
290
     1
  9
$PSVPSCALE
 40
0.0
  9
$OLESTARTUP
290
     0
  0
ENDSEC
  0
SECTION
  2
CLASSES
  0
CLASS
  1
ACDBDICTIONARYWDFLT
  2
AcDbDictionaryWithDefault
  3
ObjectDBX Classes
 90
        0
280
     0
281
     0
  0
CLASS
  1
ACDBPLACEHOLDER
  2
AcDbPlaceHolder
  3
ObjectDBX Classes
 90
        0
280
     0
281
     0
  0
CLASS
  1
LAYOUT
  2
AcDbLayout
  3
ObjectDBX Classes
 90
        0
280
     0
281
     0
  0
ENDSEC
  0
SECTION
  2
TABLES
  0
TABLE
  2
VPORT
  5
8
330
0
100
AcDbSymbolTable
 70
     1
  0
VPORT
  5
29
330
8
100
AcDbSymbolTableRecord
100
AcDbViewportTableRecord
  2
*Active
 70
     0
 10
0.0
 20
0.0
 11
1.0
 21
1.0
 12
10.4299065421
 22
4.5
 13
0.0
 23
0.0
 14
0.5
 24
0.5
 15
0.5
 25
0.5
 16
0.0
 26
0.0
 36
1.0
 17
0.0
 27
0.0
 37
0.0
 40
9.0
 41
1.9729729729
 42
50.0
 43
0.0
 44
0.0
 50
0.0
 51
0.0
 71
     0
 72
   100
 73
     1
 74
     3
 75
     0
 76
     0
 77
     0
 78
     0
281
     0
 65
     1
110
0.0
120
0.0
130
0.0
111
1.0
121
0.0
131
0.0
112
0.0
122
1.0
132
0.0
 79
     0
146
0.0
  0
ENDTAB
  0
TABLE
  2
LTYPE
  5
5
330
0
100
AcDbSymbolTable
 70
     3
  0
LTYPE
  5
14
330
5
100
AcDbSymbolTableRecord
100
AcDbLinetypeTableRecord
  2
ByBlock
 70
     0
  3

 72
    65
 73
     0
 40
0.0
  0
LTYPE
  5
15
330
5
100
AcDbSymbolTableRecord
100
AcDbLinetypeTableRecord
  2
ByLayer
 70
     0
  3

 72
    65
 73
     0
 40
0.0
  0
LTYPE
  5
16
330
5
100
AcDbSymbolTableRecord
100
AcDbLinetypeTableRecord
  2
Continuous
 70
     0
  3
Solid line
 72
    65
 73
     0
 40
0.0
  0
LTYPE
  5
2F
330
5
100
AcDbSymbolTableRecord
100
AcDbLinetypeTableRecord
  2
CENTER2
 70
     0
  3
___ _ ___ _ ___ _ ___ _ ___ _ ___ _ ___ _ ___ _
 72
    65
 73
     4
 40
1.125
 49
0.75
 74
     4
 75
     0
340
0
 46
0.0
 50
0.0
 44
0.0
 45
0.0
 49
-0.125
 74
     4
 75
     0
340
0
 46
0.0
 50
0.0
 44
0.0
 45
0.0
 49
0.125
 74
     4
 75
     0
340
0
 46
0.0
 50
0.0
 44
0.0
 45
0.0
 49
-0.125
 74
     4
 75
     0
340
0
 46
0.0
 50
0.0
 44
0.0
 45
0.0
  0
LTYPE
  5
4A
330
5
100
AcDbSymbolTableRecord
100
AcDbLinetypeTableRecord
  2
HIDDEN2
 70
     0
  3
_ _ _ _ _ _ _ _ _ _ _ _ _ _ _ _ _ _ _ _ _ _ _ _
 72
    65
 73
     2
 40
0.1875
 49
0.125
 74
     4
 75
     0
340
0
 46
0.0
 50
0.0
 44
0.0
 45
0.0
 49
-0.0625
 74
     4
 75
     0
340
0
 46
0.0
 50
0.0
 44
0.0
 45
0.0
  0
ENDTAB
  0
TABLE
  2
LAYER
  5
2
330
0
100
AcDbSymbolTable
 70
     3
  0
LAYER
  5
10
330
2
100
AcDbSymbolTableRecord
100
AcDbLayerTableRecord
  2
0
 70
     0
 62
     7
  6
Continuous
370
    -3
390
F
  0
LAYER
  5
2C
330
2
100
AcDbSymbolTableRecord
100
AcDbLayerTableRecord
  2
Default
 70
     0
 62
     7
  6
Continuous
370
    -3
390
F
  0
LAYER
  5
36
330
2
100
AcDbSymbolTableRecord
100
AcDbLayerTableRecord
  2
819
 70
     0
 62
     7
  6
Continuous
370
    -3
390
F
  0
ENDTAB
  0
TABLE
  2
STYLE
  5
3
330
0
100
AcDbSymbolTable
 70
     4
  0
STYLE
  5
11
330
3
100
AcDbSymbolTableRecord
100
AcDbTextStyleTableRecord
  2
Standard
 70
     0
 40
0.0
 41
1.0
 50
0.0
 71
     0
 42
0.2
  3
txt
  4

  0
STYLE
  5
2A
330
3
100
AcDbSymbolTableRecord
100
AcDbTextStyleTableRecord
  2
SEACAD_arial_ttfI
 70
     0
 40
0.2
 41
1.0
 50
0.0
 71
     0
 42
0.2
  3
arial.ttf
  4

  0
STYLE
  5
6C
330
3
100
AcDbSymbolTableRecord
100
AcDbTextStyleTableRecord
  2
SEACAD_seiso_ttf
 70
     0
 40
4.5
 41
1.0
 50
0.0
 71
     0
 42
0.2
  3
seiso.ttf
  4

  0
STYLE
  5
159
330
3
100
AcDbSymbolTableRecord
100
AcDbTextStyleTableRecord
  2
SEACAD_arial_ttfB
 70
     0
 40
0.2
 41
1.0
 50
0.0
 71
     0
 42
0.2
  3
arial.ttf
  4

  0
ENDTAB
  0
TABLE
  2
VIEW
  5
6
330
0
100
AcDbSymbolTable
 70
     0
  0
ENDTAB
  0
TABLE
  2
UCS
  5
7
330
0
100
AcDbSymbolTable
 70
     0
  0
ENDTAB
  0
TABLE
  2
APPID
  5
9
330
0
100
AcDbSymbolTable
 70
     1
  0
APPID
  5
12
330
9
100
AcDbSymbolTableRecord
100
AcDbRegAppTableRecord
  2
ACAD
 70
     0
  0
ENDTAB
  0
TABLE
  2
DIMSTYLE
  5
A
330
0
100
AcDbSymbolTable
 70
     2
100
AcDbDimStyleTable
  0
DIMSTYLE
105
27
330
A
100
AcDbSymbolTableRecord
100
AcDbDimStyleTableRecord
  2
Standard
 70
     0
340
11
  0
DIMSTYLE
105
6D
102
{ACAD_REACTORS
330
6E
330
7A
330
86
330
92
330
9E
330
AA
330
B5
330
C1
330
CD
330
D9
330
E4
330
EF
330
FB
330
106
330
112
330
11D
330
129
330
135
330
140
102
}
330
A
100
AcDbSymbolTableRecord
100
AcDbDimStyleTableRecord
  2
UNI
 70
     0
 41
6.75
 42
0.0
 44
2.25
 73
     0
 74
     0
 77
     1
 78
     8
140
4.5
141
2.25
147
2.25
172
     1
173
     1
176
     7
177
     7
178
     7
179
     1
271
     2
272
     2
284
     8
340
6C
343
67
344
67
  0
ENDTAB
  0
TABLE
  2
BLOCK_RECORD
  5
1
330
0
100
AcDbSymbolTable
 70
    23
  0
BLOCK_RECORD
  5
1F
330
1
100
AcDbSymbolTableRecord
100
AcDbBlockTableRecord
  2
*Model_Space
340
22
  0
BLOCK_RECORD
  5
1B
330
1
100
AcDbSymbolTableRecord
100
AcDbBlockTableRecord
  2
*Paper_Space
340
1E
  0
BLOCK_RECORD
  5
2D
330
1
100
AcDbSymbolTableRecord
100
AcDbBlockTableRecord
  2
SEANNOT_GROUP
340
0
102
{BLKREFS
331
2E
102
}
  0
BLOCK_RECORD
  5
34
330
1
100
AcDbSymbolTableRecord
100
AcDbBlockTableRecord
  2
SE
340
0
102
{BLKREFS
331
35
102
}
  0
BLOCK_RECORD
  5
67
330
1
100
AcDbSymbolTableRecord
100
AcDbBlockTableRecord
  2
_SE_FILLED
340
0
  0
BLOCK_RECORD
  5
6F
330
1
100
AcDbSymbolTableRecord
100
AcDbBlockTableRecord
  2
DMBLK20
340
0
  0
BLOCK_RECORD
  5
7B
330
1
100
AcDbSymbolTableRecord
100
AcDbBlockTableRecord
  2
DMBLK21
340
0
  0
BLOCK_RECORD
  5
87
330
1
100
AcDbSymbolTableRecord
100
AcDbBlockTableRecord
  2
DMBLK22
340
0
  0
BLOCK_RECORD
  5
93
330
1
100
AcDbSymbolTableRecord
100
AcDbBlockTableRecord
  2
DMBLK23
340
0
  0
BLOCK_RECORD
  5
9F
330
1
100
AcDbSymbolTableRecord
100
AcDbBlockTableRecord
  2
DMBLK24
340
0
  0
BLOCK_RECORD
  5
AB
330
1
100
AcDbSymbolTableRecord
100
AcDbBlockTableRecord
  2
DMBLK25
340
0
  0
BLOCK_RECORD
  5
B6
330
1
100
AcDbSymbolTableRecord
100
AcDbBlockTableRecord
  2
DMBLK26
340
0
  0
BLOCK_RECORD
  5
C2
330
1
100
AcDbSymbolTableRecord
100
AcDbBlockTableRecord
  2
DMBLK27
340
0
  0
BLOCK_RECORD
  5
CE
330
1
100
AcDbSymbolTableRecord
100
AcDbBlockTableRecord
  2
DMBLK28
340
0
  0
BLOCK_RECORD
  5
DA
330
1
100
AcDbSymbolTableRecord
100
AcDbBlockTableRecord
  2
DMBLK29
340
0
  0
BLOCK_RECORD
  5
E5
330
1
100
AcDbSymbolTableRecord
100
AcDbBlockTableRecord
  2
DMBLK30
340
0
  0
BLOCK_RECORD
  5
F0
330
1
100
AcDbSymbolTableRecord
100
AcDbBlockTableRecord
  2
DMBLK31
340
0
  0
BLOCK_RECORD
  5
FC
330
1
100
AcDbSymbolTableRecord
100
AcDbBlockTableRecord
  2
DMBLK32
340
0
  0
BLOCK_RECORD
  5
107
330
1
100
AcDbSymbolTableRecord
100
AcDbBlockTableRecord
  2
DMBLK33
340
0
  0
BLOCK_RECORD
  5
113
330
1
100
AcDbSymbolTableRecord
100
AcDbBlockTableRecord
  2
DMBLK34
340
0
  0
BLOCK_RECORD
  5
11E
330
1
100
AcDbSymbolTableRecord
100
AcDbBlockTableRecord
  2
DMBLK35
340
0
  0
BLOCK_RECORD
  5
12A
330
1
100
AcDbSymbolTableRecord
100
AcDbBlockTableRecord
  2
DMBLK36
340
0
  0
BLOCK_RECORD
  5
136
330
1
100
AcDbSymbolTableRecord
100
AcDbBlockTableRecord
  2
DMBLK37
340
0
  0
BLOCK_RECORD
  5
141
330
1
100
AcDbSymbolTableRecord
100
AcDbBlockTableRecord
  2
DMBLK38
340
0
  0
ENDTAB
  0
ENDSEC
  0
SECTION
  2
BLOCKS
  0
BLOCK
  5
20
330
1F
100
AcDbEntity
  8
0
100
AcDbBlockBegin
  2
*Model_Space
 70
     0
 71
     0
 10
0.0
 20
0.0
 30
0.0
  3
*Model_Space
  1

  0
ENDBLK
  5
21
330
1F
100
AcDbEntity
  8
0
100
AcDbBlockEnd
  0
BLOCK
  5
1C
330
1B
100
AcDbEntity
 67
     1
  8
0
100
AcDbBlockBegin
  2
*Paper_Space
 70
     0
 71
     0
 10
0.0
 20
0.0
 30
0.0
  3
*Paper_Space
  1

  0
ENDBLK
  5
1D
330
1B
100
AcDbEntity
 67
     1
  8
0
100
AcDbBlockEnd
  0
BLOCK
  5
32
330
2D
100
AcDbEntity
  8
0
100
AcDbBlockBegin
  2
SEANNOT_GROUP
 70
     0
 71
     0
 10
0.0
 20
0.0
 30
0.0
  3
SEANNOT_GROUP
  1

  0
LINE
  5
30
330
2D
100
AcDbEntity
  8
Default
  6
CENTER2
 62
     7
 48
25.4
100
AcDbLine
 10
227.3518194572
 20
95.5612165582
 30
0.0
 11
213.851819107
 21
95.5612165582
 31
0.0
  0
LINE
  5
31
330
2D
100
AcDbEntity
  8
Default
  6
CENTER2
 62
     7
 48
25.4
100
AcDbLine
 10
220.6018192821
 20
102.3112167332
 30
0.0
 11
220.6018192821
 21
88.8112163831
 31
0.0
  0
ENDBLK
  5
33
330
2D
100
AcDbEntity
  8
0
100
AcDbBlockEnd
  0
BLOCK
  5
65
330
34
100
AcDbEntity
  8
0
100
AcDbBlockBegin
  2
SE
 70
     0
 71
     0
 10
0.0
 20
0.0
 30
0.0
  3
SE
  1

  0
LINE
  5
37
330
34
100
AcDbEntity
  8
819
  6
Continuous
 62
     7
 48
25.4
100
AcDbLine
 10
228.6018192821
 20
102.0612165582
 30
0.0
 11
362.6018192821
 21
102.0612165582
 31
0.0
  0
ARC
  5
38
330
34
100
AcDbEntity
  8
819
  6
Continuous
 62
     7
 48
25.4
100
AcDbCircle
 10
228.6018192821
 20
99.0612165582
 30
0.0
 40
3.0
100
AcDbArc
 50
90.0
 51
180.0
  0
LINE
  5
39
330
34
100
AcDbEntity
  8
819
  6
Continuous
 62
     7
 48
25.4
100
AcDbLine
 10
225.6018192821
 20
92.0612165582
 30
0.0
 11
225.6018192821
 21
99.0612165582
 31
0.0
  0
ARC
  5
3A
330
34
100
AcDbEntity
  8
819
  6
Continuous
 62
     7
 48
25.4
100
AcDbCircle
 10
222.6018192821
 20
92.0612165582
 30
0.0
 40
3.000000000000003
100
AcDbArc
 50
270.0
 51
360.0
  0
LINE
  5
3B
330
34
100
AcDbEntity
  8
819
  6
Continuous
 62
     7
 48
25.4
100
AcDbLine
 10
218.6018192821
 20
89.0612165582
 30
0.0
 11
222.6018192821
 21
89.0612165582
 31
0.0
  0
ARC
  5
3C
330
34
100
AcDbEntity
  8
819
  6
Continuous
 62
     7
 48
25.4
100
AcDbCircle
 10
218.6018192821
 20
92.0612165582
 30
0.0
 40
3.0
100
AcDbArc
 50
180.0
 51
270.0
  0
LINE
  5
3D
330
34
100
AcDbEntity
  8
819
  6
Continuous
 62
     7
 48
25.4
100
AcDbLine
 10
215.6018192821
 20
99.0612165582
 30
0.0
 11
215.6018192821
 21
92.0612165582
 31
0.0
  0
ARC
  5
3E
330
34
100
AcDbEntity
  8
819
  6
Continuous
 62
     7
 48
25.4
100
AcDbCircle
 10
212.6018192821
 20
99.0612165582
 30
0.0
 40
2.999999999999989
100
AcDbArc
 50
0.0
 51
90.0
  0
LINE
  5
3F
330
34
100
AcDbEntity
  8
819
  6
Continuous
 62
     7
 48
25.4
100
AcDbLine
 10
78.6018192821
 20
102.0612165582
 30
0.0
 11
212.6018192821
 21
102.0612165582
 31
0.0
  0
ARC
  5
40
330
34
100
AcDbEntity
  8
819
  6
Continuous
 62
     7
 48
25.4
100
AcDbCircle
 10
78.6018192821
 20
105.0612165582
 30
0.0
 40
3.000000000000003
100
AcDbArc
 50
180.0
 51
270.0
  0
LINE
  5
41
330
34
100
AcDbEntity
  8
819
  6
Continuous
 62
     7
 48
25.4
100
AcDbLine
 10
365.6018192821
 20
105.0612165582
 30
0.0
 11
365.6018192821
 21
221.0612165582
 31
0.0
  0
ARC
  5
42
330
34
100
AcDbEntity
  8
819
  6
Continuous
 62
     7
 48
25.4
100
AcDbCircle
 10
362.6018192821
 20
105.0612165582
 30
0.0
 40
2.999999999999996
100
AcDbArc
 50
270.0
 51
360.0
  0
LINE
  5
43
330
34
100
AcDbEntity
  8
819
  6
Continuous
 62
     7
 48
25.4
100
AcDbLine
 10
75.6018192821
 20
221.0612165582
 30
0.0
 11
75.6018192821
 21
105.0612165582
 31
0.0
  0
LINE
  5
44
330
34
100
AcDbEntity
  8
819
  6
Continuous
 62
     7
 48
25.4
100
AcDbLine
 10
81.6038192821
 20
221.0612165582
 30
0.0
 11
75.6018192821
 21
221.0612165582
 31
0.0
  0
ARC
  5
45
330
34
100
AcDbEntity
  8
819
  6
Continuous
 62
     7
 48
25.4
100
AcDbCircle
 10
81.6038192821
 20
222.5612165582
 30
0.0
 40
1.500000000000001
100
AcDbArc
 50
270.0
 51
90.0
  0
LINE
  5
46
330
34
100
AcDbEntity
  8
819
  6
Continuous
 62
     7
 48
25.4
100
AcDbLine
 10
78.6038192821
 20
224.0612165582
 30
0.0
 11
81.6038192821
 21
224.0612165582
 31
0.0
  0
LINE
  5
47
330
34
100
AcDbEntity
  8
819
  6
Continuous
 62
     7
 48
25.4
100
AcDbLine
 10
75.6018192821
 20
224.0612165582
 30
0.0
 11
75.6018192821
 21
234.0612165582
 31
0.0
  0
LINE
  5
48
330
34
100
AcDbEntity
  8
819
  6
Continuous
 62
     7
 48
25.4
100
AcDbLine
 10
78.6038192821
 20
234.0612165582
 30
0.0
 11
75.6018192821
 21
234.0612165582
 31
0.0
  0
LINE
  5
49
330
34
100
AcDbEntity
  8
819
  6
Continuous
 62
     7
 48
25.4
100
AcDbLine
 10
75.6018192821
 20
224.0612165582
 30
0.0
 11
78.6038192821
 21
224.0612165582
 31
0.0
  0
LINE
  5
4B
330
34
100
AcDbEntity
  8
819
  6
HIDDEN2
 62
     7
 48
25.4
100
AcDbLine
 10
78.6018192821
 20
224.0612165582
 30
0.0
 11
78.6018192821
 21
234.0612165582
 31
0.0
  0
ARC
  5
4C
330
34
100
AcDbEntity
  8
819
  6
Continuous
 62
     7
 48
25.4
100
AcDbCircle
 10
359.5998192821
 20
222.5612165582
 30
0.0
 40
1.500000000000001
100
AcDbArc
 50
90.0
 51
270.0
  0
LINE
  5
4D
330
34
100
AcDbEntity
  8
819
  6
Continuous
 62
     7
 48
25.4
100
AcDbLine
 10
359.5998192821
 20
221.0612165582
 30
0.0
 11
365.6018192821
 21
221.0612165582
 31
0.0
  0
LINE
  5
4E
330
34
100
AcDbEntity
  8
819
  6
Continuous
 62
     7
 48
25.4
100
AcDbLine
 10
362.5998192821
 20
224.0612165582
 30
0.0
 11
359.5998192821
 21
224.0612165582
 31
0.0
  0
LINE
  5
4F
330
34
100
AcDbEntity
  8
819
  6
Continuous
 62
     7
 48
25.4
100
AcDbLine
 10
362.5998192821
 20
234.0612165582
 30
0.0
 11
78.6038192821
 21
234.0612165582
 31
0.0
  0
LINE
  5
50
330
34
100
AcDbEntity
  8
819
  6
Continuous
 62
     7
 48
25.4
100
AcDbLine
 10
365.6018192821
 20
224.0612165582
 30
0.0
 11
362.5998192821
 21
224.0612165582
 31
0.0
  0
LINE
  5
51
330
34
100
AcDbEntity
  8
819
  6
Continuous
 62
     7
 48
25.4
100
AcDbLine
 10
362.5998192821
 20
234.0612165582
 30
0.0
 11
365.6018192821
 21
234.0612165582
 31
0.0
  0
LINE
  5
52
330
34
100
AcDbEntity
  8
819
  6
Continuous
 62
     7
 48
25.4
100
AcDbLine
 10
365.6018192821
 20
234.0612165582
 30
0.0
 11
365.6018192821
 21
224.0612165582
 31
0.0
  0
LINE
  5
53
330
34
100
AcDbEntity
  8
819
  6
HIDDEN2
 62
     7
 48
25.4
100
AcDbLine
 10
362.6018192821
 20
234.0612165582
 30
0.0
 11
362.6018192821
 21
224.0612165582
 31
0.0
  0
CIRCLE
  5
54
330
34
100
AcDbEntity
  8
819
  6
Continuous
 62
     7
 48
25.4
100
AcDbCircle
 10
220.6018192821
 20
95.5612165582
 30
0.0
 40
1.5
  0
LINE
  5
55
330
34
100
AcDbEntity
  8
819
  6
Continuous
 62
     7
 48
25.4
100
AcDbLine
 10
257.2483498943
 20
172.3844818643
 30
0.0
 11
117.480186629
 21
172.3844818643
 31
0.0
  0
LINE
  5
56
330
34
100
AcDbEntity
  8
819
  6
Continuous
 62
     7
 48
25.4
100
AcDbLine
 10
117.480186629
 20
172.3844818643
 30
0.0
 11
117.480186629
 21
139.5730532929
 31
0.0
  0
LINE
  5
57
330
34
100
AcDbEntity
  8
819
  6
Continuous
 62
     7
 48
25.4
100
AcDbLine
 10
117.480186629
 20
139.5730532929
 30
0.0
 11
257.2483498943
 21
139.5730532929
 31
0.0
  0
LINE
  5
58
330
34
100
AcDbEntity
  8
819
  6
Continuous
 62
     7
 48
25.4
100
AcDbLine
 10
257.2483498943
 20
139.5730532929
 30
0.0
 11
257.2483498943
 21
172.3844818643
 31
0.0
  0
CIRCLE
  5
59
330
34
100
AcDbEntity
  8
819
  6
Continuous
 62
     7
 48
25.4
100
AcDbCircle
 10
351.4018192821
 20
107.1612165582
 30
0.0
 40
1.75
  0
CIRCLE
  5
5A
330
34
100
AcDbEntity
  8
819
  6
Continuous
 62
     7
 48
25.4
100
AcDbCircle
 10
351.7918192821
 20
215.3912165582
 30
0.0
 40
1.75
  0
CIRCLE
  5
5B
330
34
100
AcDbEntity
  8
819
  6
Continuous
 62
     7
 48
25.4
100
AcDbCircle
 10
117.0318192821
 20
107.1712165582
 30
0.0
 40
1.75
  0
CIRCLE
  5
5C
330
34
100
AcDbEntity
  8
819
  6
Continuous
 62
     7
 48
25.4
100
AcDbCircle
 10
80.4518192821
 20
215.4012165582
 30
0.0
 40
1.75
  0
CIRCLE
  5
5D
330
34
100
AcDbEntity
  8
819
  6
Continuous
 62
     7
 48
25.4
100
AcDbCircle
 10
247.2216424332
 20
187.102052571
 30
0.0
 40
1.585
  0
CIRCLE
  5
5E
330
34
100
AcDbEntity
  8
819
  6
Continuous
 62
     7
 48
25.4
100
AcDbCircle
 10
247.2216424332
 20
218.682052571
 30
0.0
 40
1.585
  0
CIRCLE
  5
5F
330
34
100
AcDbEntity
  8
819
  6
Continuous
 62
     7
 48
25.4
100
AcDbCircle
 10
122.1916424332
 20
220.702052571
 30
0.0
 40
1.585
  0
CIRCLE
  5
60
330
34
100
AcDbEntity
  8
819
  6
Continuous
 62
     7
 48
25.4
100
AcDbCircle
 10
122.1916424332
 20
186.702052571
 30
0.0
 40
1.585
  0
LINE
  5
61
330
34
100
AcDbEntity
  8
819
  6
HIDDEN2
 62
     7
 48
25.4
100
AcDbLine
 10
75.6018192821
 20
227.5612165582
 30
0.0
 11
78.6018192821
 21
227.5612165582
 31
0.0
  0
LINE
  5
62
330
34
100
AcDbEntity
  8
819
  6
HIDDEN2
 62
     7
 48
25.4
100
AcDbLine
 10
78.6018192821
 20
230.5612165582
 30
0.0
 11
75.6018192821
 21
230.5612165582
 31
0.0
  0
LINE
  5
63
330
34
100
AcDbEntity
  8
819
  6
HIDDEN2
 62
     7
 48
25.4
100
AcDbLine
 10
365.6018192821
 20
230.5612165582
 30
0.0
 11
362.6018192821
 21
230.5612165582
 31
0.0
  0
LINE
  5
64
330
34
100
AcDbEntity
  8
819
  6
HIDDEN2
 62
     7
 48
25.4
100
AcDbLine
 10
362.6018192821
 20
227.5612165582
 30
0.0
 11
365.6018192821
 21
227.5612165582
 31
0.0
  0
ENDBLK
  5
66
330
34
100
AcDbEntity
  8
0
100
AcDbBlockEnd
  0
BLOCK
  5
6A
330
67
100
AcDbEntity
  8
0
100
AcDbBlockBegin
  2
_SE_FILLED
 70
     0
 71
     0
 10
0.0
 20
0.0
 30
0.0
  3
_SE_FILLED
  1

  0
SOLID
  5
68
330
67
100
AcDbEntity
  8
0
100
AcDbTrace
 10
0.0
 20
0.0
 30
0.0
 11
-1.0
 21
-0.1665
 31
0.0
 12
-1.0
 22
0.1665
 32
0.0
 13
0.0
 23
0.0
 33
0.0
  0
LINE
  5
69
330
67
100
AcDbEntity
  8
0
100
AcDbLine
 10
0.0
 20
0.0
 30
0.0
 11
-1.0
 21
0.0
 31
0.0
  0
ENDBLK
  5
6B
330
67
100
AcDbEntity
  8
0
100
AcDbBlockEnd
  0
BLOCK
  5
78
330
6F
100
AcDbEntity
  8
0
100
AcDbBlockBegin
  2
DMBLK20
 70
     0
 71
     0
 10
0.0
 20
0.0
 30
0.0
  3
DMBLK20
  1

  0
HATCH
  5
70
330
6F
100
AcDbEntity
  8
Default
  6
Continuous
 62
   136
 48
25.4
100
AcDbHatch
 10
0.0
 20
0.0
 30
0.0
210
0.0
220
0.0
230
1.0
  2
SOLID
 70
     1
 71
     0
 91
        1
 92
        1
 93
        3
 72
     1
 10
82.35181945715462
 20
276.7416401450959
 11
75.60181928206597
 21
275.6166401159145
 72
     1
 10
75.60181928206597
 20
275.6166401159145
 11
82.35181945715462
 21
274.4916400867331
 72
     1
 10
82.35181945715462
 20
274.4916400867331
 11
82.35181945715462
 21
276.7416401450959
 97
        0
 75
     0
 76
     1
 98
        0
  0
LWPOLYLINE
  5
71
330
6F
100
AcDbEntity
  8
Default
  6
Continuous
 62
   136
 48
25.4
370
    20
100
AcDbPolyline
 90
        4
 70
     1
 43
0.00025
 10
82.3518194572
 20
276.7416401451
 10
75.6018192821
 20
275.6166401159
 10
82.3518194572
 20
274.4916400867
 10
82.3518194572
 20
276.7416401451
  0
HATCH
  5
72
330
6F
100
AcDbEntity
  8
Default
  6
Continuous
 62
   136
 48
25.4
100
AcDbHatch
 10
0.0
 20
0.0
 30
0.0
210
0.0
220
0.0
230
1.0
  2
SOLID
 70
     1
 71
     0
 91
        1
 92
        1
 93
        3
 72
     1
 10
358.8518107623271
 20
276.7416401450959
 11
358.8518107623271
 21
274.4916400867331
 72
     1
 10
358.8518107623271
 20
274.4916400867331
 11
365.6018109374157
 21
275.6166401159145
 72
     1
 10
365.6018109374157
 20
275.6166401159145
 11
358.8518107623271
 21
276.7416401450959
 97
        0
 75
     0
 76
     1
 98
        0
  0
LWPOLYLINE
  5
73
330
6F
100
AcDbEntity
  8
Default
  6
Continuous
 62
   136
 48
25.4
370
    20
100
AcDbPolyline
 90
        4
 70
     1
 43
0.00025
 10
358.8518107623
 20
276.7416401451
 10
365.6018109374
 20
275.6166401159
 10
358.8518107623
 20
274.4916400867
 10
358.8518107623
 20
276.7416401451
  0
LINE
  5
74
330
6F
100
AcDbEntity
  8
Default
  6
Continuous
 62
     7
 48
25.4
100
AcDbLine
 10
75.6018192821
 20
221.0612165582
 30
0.0
 11
75.6018192821
 21
277.8666400191
 31
0.0
  0
LINE
  5
75
330
6F
100
AcDbEntity
  8
Default
  6
Continuous
 62
     7
 48
25.4
100
AcDbLine
 10
365.6018192821
 20
221.0612165582
 30
0.0
 11
365.6018192821
 21
277.8666400191
 31
0.0
  0
LINE
  5
76
330
6F
100
AcDbEntity
  8
Default
  6
Continuous
 62
     7
 48
25.4
100
AcDbLine
 10
75.6018192821
 20
275.6166401159
 30
0.0
 11
365.6018109374
 21
275.6166401159
 31
0.0
  0
TEXT
  5
77
330
6F
100
AcDbEntity
  8
Default
  6
Continuous
 62
     7
 48
25.4
100
AcDbText
 10
216.5109060188
 20
276.7416401159
 30
0.0
 40
4.5
  1
290
  7
SEACAD_seiso_ttf
 11
216.5109060188
 21
281.2416401159
 31
0.0
100
AcDbText
 73
     3
  0
ENDBLK
  5
79
330
6F
100
AcDbEntity
  8
0
100
AcDbBlockEnd
  0
BLOCK
  5
84
330
7B
100
AcDbEntity
  8
0
100
AcDbBlockBegin
  2
DMBLK21
 70
     0
 71
     0
 10
0.0
 20
0.0
 30
0.0
  3
DMBLK21
  1

  0
HATCH
  5
7C
330
7B
100
AcDbEntity
  8
Default
  6
Continuous
 62
   136
 48
25.4
100
AcDbHatch
 10
0.0
 20
0.0
 30
0.0
210
0.0
220
0.0
230
1.0
  2
SOLID
 70
     1
 71
     0
 91
        1
 92
        1
 93
        3
 72
     1
 10
358.8518191069773
 20
260.8644230907288
 11
358.8518191069773
 21
258.614423032366
 72
     1
 10
358.8518191069773
 20
258.614423032366
 11
365.6018192820659
 21
259.7394230615474
 72
     1
 10
365.6018192820659
 20
259.7394230615474
 11
358.8518191069773
 21
260.8644230907288
 97
        0
 75
     0
 76
     1
 98
        0
  0
LWPOLYLINE
  5
7D
330
7B
100
AcDbEntity
  8
Default
  6
Continuous
 62
   136
 48
25.4
370
    20
100
AcDbPolyline
 90
        4
 70
     1
 43
0.00025
 10
358.851819107
 20
260.8644230907
 10
365.6018192821
 20
259.7394230615
 10
358.851819107
 20
258.6144230324
 10
358.851819107
 20
260.8644230907
  0
HATCH
  5
7E
330
7B
100
AcDbEntity
  8
Default
  6
Continuous
 62
   136
 48
25.4
100
AcDbHatch
 10
0.0
 20
0.0
 30
0.0
210
0.0
220
0.0
230
1.0
  2
SOLID
 70
     1
 71
     0
 91
        1
 92
        1
 93
        3
 72
     1
 10
358.5418190747908
 20
260.8644230907288
 11
351.7918188997022
 21
259.7394230615474
 72
     1
 10
351.7918188997022
 20
259.7394230615474
 11
358.5418190747908
 21
258.614423032366
 72
     1
 10
358.5418190747908
 20
258.614423032366
 11
358.5418190747908
 21
260.8644230907288
 97
        0
 75
     0
 76
     1
 98
        0
  0
LWPOLYLINE
  5
7F
330
7B
100
AcDbEntity
  8
Default
  6
Continuous
 62
   136
 48
25.4
370
    20
100
AcDbPolyline
 90
        4
 70
     1
 43
0.00025
 10
358.5418190748
 20
260.8644230907
 10
351.7918188997
 20
259.7394230615
 10
358.5418190748
 20
258.6144230324
 10
358.5418190748
 20
260.8644230907
  0
LINE
  5
80
330
7B
100
AcDbEntity
  8
Default
  6
Continuous
 62
     7
 48
25.4
100
AcDbLine
 10
365.6018192821
 20
221.0612165582
 30
0.0
 11
365.6018192821
 21
261.9894229647
 31
0.0
  0
LINE
  5
81
330
7B
100
AcDbEntity
  8
Default
  6
Continuous
 62
     7
 48
25.4
100
AcDbLine
 10
351.7918192821
 20
215.3912165582
 30
0.0
 11
351.7918192821
 21
261.9894229647
 31
0.0
  0
LINE
  5
82
330
7B
100
AcDbEntity
  8
Default
  6
Continuous
 62
     7
 48
25.4
100
AcDbLine
 10
387.4057943874
 20
259.7394230615
 30
0.0
 11
351.7918188997
 21
259.7394230615
 31
0.0
  0
TEXT
  5
83
330
7B
100
AcDbEntity
  8
Default
  6
Continuous
 62
     7
 48
25.4
100
AcDbText
 10
376.1148840808
 20
260.8644230615
 30
0.0
 40
4.5
  1
13.81
  7
SEACAD_seiso_ttf
 11
376.1148840808
 21
265.3644230615
 31
0.0
100
AcDbText
 73
     3
  0
ENDBLK
  5
85
330
7B
100
AcDbEntity
  8
0
100
AcDbBlockEnd
  0
BLOCK
  5
90
330
87
100
AcDbEntity
  8
0
100
AcDbBlockBegin
  2
DMBLK22
 70
     0
 71
     0
 10
0.0
 20
0.0
 30
0.0
  3
DMBLK22
  1

  0
HATCH
  5
88
330
87
100
AcDbEntity
  8
Default
  6
Continuous
 62
   136
 48
25.4
100
AcDbHatch
 10
0.0
 20
0.0
 30
0.0
210
0.0
220
0.0
230
1.0
  2
SOLID
 70
     1
 71
     0
 91
        1
 92
        1
 93
        3
 72
     1
 10
345.0418191069774
 20
260.8644229584065
 11
345.0418191069774
 21
258.6144229000437
 72
     1
 10
345.0418191069774
 20
258.6144229000437
 11
351.791819282066
 21
259.7394229292251
 72
     1
 10
351.791819282066
 20
259.7394229292251
 11
345.0418191069774
 21
260.8644229584065
 97
        0
 75
     0
 76
     1
 98
        0
  0
LWPOLYLINE
  5
89
330
87
100
AcDbEntity
  8
Default
  6
Continuous
 62
   136
 48
25.4
370
    20
100
AcDbPolyline
 90
        4
 70
     1
 43
0.00025
 10
345.041819107
 20
260.8644229584
 10
351.7918192821
 20
259.7394229292
 10
345.041819107
 20
258.6144229
 10
345.041819107
 20
260.8644229584
  0
HATCH
  5
8A
330
87
100
AcDbEntity
  8
Default
  6
Continuous
 62
   136
 48
25.4
100
AcDbHatch
 10
0.0
 20
0.0
 30
0.0
210
0.0
220
0.0
230
1.0
  2
SOLID
 70
     1
 71
     0
 91
        1
 92
        1
 93
        3
 72
     1
 10
253.971639279466
 20
260.8644229584065
 11
247.2216391043774
 21
259.7394229292251
 72
     1
 10
247.2216391043774
 20
259.7394229292251
 11
253.971639279466
 21
258.6144229000437
 72
     1
 10
253.971639279466
 20
258.6144229000437
 11
253.971639279466
 21
260.8644229584065
 97
        0
 75
     0
 76
     1
 98
        0
  0
LWPOLYLINE
  5
8B
330
87
100
AcDbEntity
  8
Default
  6
Continuous
 62
   136
 48
25.4
370
    20
100
AcDbPolyline
 90
        4
 70
     1
 43
0.00025
 10
253.9716392795
 20
260.8644229584
 10
247.2216391044
 20
259.7394229292
 10
253.9716392795
 20
258.6144229
 10
253.9716392795
 20
260.8644229584
  0
LINE
  5
8C
330
87
100
AcDbEntity
  8
Default
  6
Continuous
 62
     7
 48
25.4
100
AcDbLine
 10
351.7918192821
 20
215.3912165582
 30
0.0
 11
351.7918192821
 21
261.9894228324
 31
0.0
  0
LINE
  5
8D
330
87
100
AcDbEntity
  8
Default
  6
Continuous
 62
     7
 48
25.4
100
AcDbLine
 10
247.2216424332
 20
187.102052571
 30
0.0
 11
247.2216424332
 21
261.9894228324
 31
0.0
  0
LINE
  5
8E
330
87
100
AcDbEntity
  8
Default
  6
Continuous
 62
     7
 48
25.4
100
AcDbLine
 10
351.7918192821
 20
259.7394229292
 30
0.0
 11
247.2216391044
 21
259.7394229292
 31
0.0
  0
TEXT
  5
8F
330
87
100
AcDbEntity
  8
Default
  6
Continuous
 62
     7
 48
25.4
100
AcDbText
 10
292.8078655569
 20
260.8644229292
 30
0.0
 40
4.5
  1
104.57
  7
SEACAD_seiso_ttf
 11
292.8078655569
 21
265.3644229292
 31
0.0
100
AcDbText
 73
     3
  0
ENDBLK
  5
91
330
87
100
AcDbEntity
  8
0
100
AcDbBlockEnd
  0
BLOCK
  5
9C
330
93
100
AcDbEntity
  8
0
100
AcDbBlockBegin
  2
DMBLK23
 70
     0
 71
     0
 10
0.0
 20
0.0
 30
0.0
  3
DMBLK23
  1

  0
HATCH
  5
94
330
93
100
AcDbEntity
  8
Default
  6
Continuous
 62
   136
 48
25.4
100
AcDbHatch
 10
0.0
 20
0.0
 30
0.0
210
0.0
220
0.0
230
1.0
  2
SOLID
 70
     1
 71
     0
 91
        1
 92
        1
 93
        3
 72
     1
 10
240.4716422581027
 20
260.8893465111795
 11
240.4716422581027
 21
258.6393464528167
 72
     1
 10
240.4716422581027
 20
258.6393464528167
 11
247.2216424331914
 21
259.7643464819981
 72
     1
 10
247.2216424331914
 20
259.7643464819981
 11
240.4716422581027
 21
260.8893465111795
 97
        0
 75
     0
 76
     1
 98
        0
  0
LWPOLYLINE
  5
95
330
93
100
AcDbEntity
  8
Default
  6
Continuous
 62
   136
 48
25.4
370
    20
100
AcDbPolyline
 90
        4
 70
     1
 43
0.00025
 10
240.4716422581
 20
260.8893465112
 10
247.2216424332
 20
259.764346482
 10
240.4716422581
 20
258.6393464528
 10
240.4716422581
 20
260.8893465112
  0
HATCH
  5
96
330
93
100
AcDbEntity
  8
Default
  6
Continuous
 62
   136
 48
25.4
100
AcDbHatch
 10
0.0
 20
0.0
 30
0.0
210
0.0
220
0.0
230
1.0
  2
SOLID
 70
     1
 71
     0
 91
        1
 92
        1
 93
        3
 72
     1
 10
128.9416465707968
 20
260.8893465111795
 11
122.1916463957081
 21
259.7643464819981
 72
     1
 10
122.1916463957081
 20
259.7643464819981
 11
128.9416465707968
 21
258.6393464528167
 72
     1
 10
128.9416465707968
 20
258.6393464528167
 11
128.9416465707968
 21
260.8893465111795
 97
        0
 75
     0
 76
     1
 98
        0
  0
LWPOLYLINE
  5
97
330
93
100
AcDbEntity
  8
Default
  6
Continuous
 62
   136
 48
25.4
370
    20
100
AcDbPolyline
 90
        4
 70
     1
 43
0.00025
 10
128.9416465708
 20
260.8893465112
 10
122.1916463957
 20
259.764346482
 10
128.9416465708
 20
258.6393464528
 10
128.9416465708
 20
260.8893465112
  0
LINE
  5
98
330
93
100
AcDbEntity
  8
Default
  6
Continuous
 62
     7
 48
25.4
100
AcDbLine
 10
247.2216424332
 20
187.102052571
 30
0.0
 11
247.2216424332
 21
262.0143463851
 31
0.0
  0
LINE
  5
99
330
93
100
AcDbEntity
  8
Default
  6
Continuous
 62
     7
 48
25.4
100
AcDbLine
 10
122.1916424332
 20
186.702052571
 30
0.0
 11
122.1916424332
 21
262.0143463851
 31
0.0
  0
LINE
  5
9A
330
93
100
AcDbEntity
  8
Default
  6
Continuous
 62
     7
 48
25.4
100
AcDbLine
 10
247.2216424332
 20
259.764346482
 30
0.0
 11
122.1916463957
 21
259.764346482
 31
0.0
  0
TEXT
  5
9B
330
93
100
AcDbEntity
  8
Default
  6
Continuous
 62
     7
 48
25.4
100
AcDbText
 10
178.2123262326
 20
260.889346482
 30
0.0
 40
4.5
  1
125.03
  7
SEACAD_seiso_ttf
 11
178.2123262326
 21
265.389346482
 31
0.0
100
AcDbText
 73
     3
  0
ENDBLK
  5
9D
330
93
100
AcDbEntity
  8
0
100
AcDbBlockEnd
  0
BLOCK
  5
A8
330
9F
100
AcDbEntity
  8
0
100
AcDbBlockBegin
  2
DMBLK24
 70
     0
 71
     0
 10
0.0
 20
0.0
 30
0.0
  3
DMBLK24
  1

  0
HATCH
  5
A0
330
9F
100
AcDbEntity
  8
Default
  6
Continuous
 62
   136
 48
25.4
100
AcDbHatch
 10
0.0
 20
0.0
 30
0.0
210
0.0
220
0.0
230
1.0
  2
SOLID
 70
     1
 71
     0
 91
        1
 92
        1
 93
        3
 72
     1
 10
87.2018194571546
 20
260.81455381802
 11
80.45181928206596
 21
259.6895537888386
 72
     1
 10
80.45181928206596
 20
259.6895537888386
 11
87.2018194571546
 21
258.5645537596571
 72
     1
 10
87.2018194571546
 20
258.5645537596571
 11
87.2018194571546
 21
260.81455381802
 97
        0
 75
     0
 76
     1
 98
        0
  0
LWPOLYLINE
  5
A1
330
9F
100
AcDbEntity
  8
Default
  6
Continuous
 62
   136
 48
25.4
370
    20
100
AcDbPolyline
 90
        4
 70
     1
 43
0.00025
 10
87.2018194572
 20
260.814553818
 10
80.4518192821
 20
259.6895537888
 10
87.2018194572
 20
258.5645537597
 10
87.2018194572
 20
260.814553818
  0
HATCH
  5
A2
330
9F
100
AcDbEntity
  8
Default
  6
Continuous
 62
   136
 48
25.4
100
AcDbHatch
 10
0.0
 20
0.0
 30
0.0
210
0.0
220
0.0
230
1.0
  2
SOLID
 70
     1
 71
     0
 91
        1
 92
        1
 93
        3
 72
     1
 10
115.4416405409983
 20
260.81455381802
 11
115.4416405409983
 21
258.5645537596571
 72
     1
 10
115.4416405409983
 20
258.5645537596571
 11
122.191640716087
 21
259.6895537888386
 72
     1
 10
122.191640716087
 20
259.6895537888386
 11
115.4416405409983
 21
260.81455381802
 97
        0
 75
     0
 76
     1
 98
        0
  0
LWPOLYLINE
  5
A3
330
9F
100
AcDbEntity
  8
Default
  6
Continuous
 62
   136
 48
25.4
370
    20
100
AcDbPolyline
 90
        4
 70
     1
 43
0.00025
 10
115.441640541
 20
260.814553818
 10
122.1916407161
 20
259.6895537888
 10
115.441640541
 20
258.5645537597
 10
115.441640541
 20
260.814553818
  0
LINE
  5
A4
330
9F
100
AcDbEntity
  8
Default
  6
Continuous
 62
     7
 48
25.4
100
AcDbLine
 10
80.4518192821
 20
215.4012165582
 30
0.0
 11
80.4518192821
 21
261.939553692
 31
0.0
  0
LINE
  5
A5
330
9F
100
AcDbEntity
  8
Default
  6
Continuous
 62
     7
 48
25.4
100
AcDbLine
 10
122.1916424332
 20
220.702052571
 30
0.0
 11
122.1916424332
 21
261.939553692
 31
0.0
  0
LINE
  5
A6
330
9F
100
AcDbEntity
  8
Default
  6
Continuous
 62
     7
 48
25.4
100
AcDbLine
 10
80.4518192821
 20
259.6895537888
 30
0.0
 11
122.1916407161
 21
259.6895537888
 31
0.0
  0
TEXT
  5
A7
330
9F
100
AcDbEntity
  8
Default
  6
Continuous
 62
     7
 48
25.4
100
AcDbText
 10
95.9012754536
 20
260.8145537888
 30
0.0
 40
4.5
  1
41.74
  7
SEACAD_seiso_ttf
 11
95.9012754536
 21
265.3145537888
 31
0.0
100
AcDbText
 73
     3
  0
ENDBLK
  5
A9
330
9F
100
AcDbEntity
  8
0
100
AcDbBlockEnd
  0
BLOCK
  5
B3
330
AB
100
AcDbEntity
  8
0
100
AcDbBlockBegin
  2
DMBLK25
 70
     0
 71
     0
 10
0.0
 20
0.0
 30
0.0
  3
DMBLK25
  1

  0
HATCH
  5
AC
330
AB
100
AcDbEntity
  8
Default
  6
Continuous
 62
   136
 48
25.4
100
AcDbHatch
 10
0.0
 20
0.0
 30
0.0
210
0.0
220
0.0
230
1.0
  2
SOLID
 70
     1
 71
     0
 91
        1
 92
        1
 93
        3
 72
     1
 10
358.8518191069773
 20
197.4346618001787
 11
358.8518191069773
 21
195.1846617418158
 72
     1
 10
358.8518191069773
 20
195.1846617418158
 11
365.6018192820659
 21
196.3096617709972
 72
     1
 10
365.6018192820659
 20
196.3096617709972
 11
358.8518191069773
 21
197.4346618001787
 97
        0
 75
     0
 76
     1
 98
        0
  0
LWPOLYLINE
  5
AD
330
AB
100
AcDbEntity
  8
Default
  6
Continuous
 62
   136
 48
25.4
370
    20
100
AcDbPolyline
 90
        4
 70
     1
 43
0.00025
 10
358.851819107
 20
197.4346618002
 10
365.6018192821
 20
196.309661771
 10
358.851819107
 20
195.1846617418
 10
358.851819107
 20
197.4346618002
  0
HATCH
  5
AE
330
AB
100
AcDbEntity
  8
Default
  6
Continuous
 62
   136
 48
25.4
100
AcDbHatch
 10
0.0
 20
0.0
 30
0.0
210
0.0
220
0.0
230
1.0
  2
SOLID
 70
     1
 71
     0
 91
        1
 92
        1
 93
        3
 72
     1
 10
358.1518193647674
 20
197.4346618001787
 11
351.4018191896787
 21
196.3096617709972
 72
     1
 10
351.4018191896787
 20
196.3096617709972
 11
358.1518193647674
 21
195.1846617418158
 72
     1
 10
358.1518193647674
 20
195.1846617418158
 11
358.1518193647674
 21
197.4346618001787
 97
        0
 75
     0
 76
     1
 98
        0
  0
LWPOLYLINE
  5
AF
330
AB
100
AcDbEntity
  8
Default
  6
Continuous
 62
   136
 48
25.4
370
    20
100
AcDbPolyline
 90
        4
 70
     1
 43
0.00025
 10
358.1518193648
 20
197.4346618002
 10
351.4018191897
 20
196.309661771
 10
358.1518193648
 20
195.1846617418
 10
358.1518193648
 20
197.4346618002
  0
LINE
  5
B0
330
AB
100
AcDbEntity
  8
Default
  6
Continuous
 62
     7
 48
25.4
100
AcDbLine
 10
351.4018192821
 20
107.1612165582
 30
0.0
 11
351.4018192821
 21
198.5596616741
 31
0.0
  0
LINE
  5
B1
330
AB
100
AcDbEntity
  8
Default
  6
Continuous
 62
     7
 48
25.4
100
AcDbLine
 10
391.7505781107
 20
196.309661771
 30
0.0
 11
351.4018191897
 21
196.309661771
 31
0.0
  0
TEXT
  5
B2
330
AB
100
AcDbEntity
  8
Default
  6
Continuous
 62
     7
 48
25.4
100
AcDbText
 10
382.0960332327
 20
197.434661771
 30
0.0
 40
4.5
  1
14.2
  7
SEACAD_seiso_ttf
 11
382.0960332327
 21
201.934661771
 31
0.0
100
AcDbText
 73
     3
  0
ENDBLK
  5
B4
330
AB
100
AcDbEntity
  8
0
100
AcDbBlockEnd
  0
BLOCK
  5
BF
330
B6
100
AcDbEntity
  8
0
100
AcDbBlockBegin
  2
DMBLK26
 70
     0
 71
     0
 10
0.0
 20
0.0
 30
0.0
  3
DMBLK26
  1

  0
HATCH
  5
B7
330
B6
100
AcDbEntity
  8
Default
  6
Continuous
 62
   136
 48
25.4
100
AcDbHatch
 10
0.0
 20
0.0
 30
0.0
210
0.0
220
0.0
230
1.0
  2
SOLID
 70
     1
 71
     0
 91
        1
 92
        1
 93
        3
 72
     1
 10
36.68435356203332
 20
227.3112163830675
 11
38.9343536203962
 21
227.3112163830675
 72
     1
 10
38.9343536203962
 20
227.3112163830675
 11
37.80935359121476
 21
234.0612165581561
 72
     1
 10
37.80935359121476
 20
234.0612165581561
 11
36.68435356203332
 21
227.3112163830675
 97
        0
 75
     0
 76
     1
 98
        0
  0
LWPOLYLINE
  5
B8
330
B6
100
AcDbEntity
  8
Default
  6
Continuous
 62
   136
 48
25.4
370
    20
100
AcDbPolyline
 90
        4
 70
     1
 43
0.00025
 10
36.684353562
 20
227.3112163831
 10
37.8093535912
 20
234.0612165582
 10
38.9343536204
 20
227.3112163831
 10
36.684353562
 20
227.3112163831
  0
HATCH
  5
B9
330
B6
100
AcDbEntity
  8
Default
  6
Continuous
 62
   136
 48
25.4
100
AcDbHatch
 10
0.0
 20
0.0
 30
0.0
210
0.0
220
0.0
230
1.0
  2
SOLID
 70
     1
 71
     0
 91
        1
 92
        1
 93
        3
 72
     1
 10
36.68435356203332
 20
108.8112174485005
 11
37.80935359121476
 21
102.0612172734119
 72
     1
 10
37.80935359121476
 20
102.0612172734119
 11
38.9343536203962
 21
108.8112174485005
 72
     1
 10
38.9343536203962
 20
108.8112174485005
 11
36.68435356203332
 21
108.8112174485005
 97
        0
 75
     0
 76
     1
 98
        0
  0
LWPOLYLINE
  5
BA
330
B6
100
AcDbEntity
  8
Default
  6
Continuous
 62
   136
 48
25.4
370
    20
100
AcDbPolyline
 90
        4
 70
     1
 43
0.00025
 10
36.684353562
 20
108.8112174485
 10
37.8093535912
 20
102.0612172734
 10
38.9343536204
 20
108.8112174485
 10
36.684353562
 20
108.8112174485
  0
LINE
  5
BB
330
B6
100
AcDbEntity
  8
Default
  6
Continuous
 62
     7
 48
25.4
100
AcDbLine
 10
78.6038192821
 20
234.0612165582
 30
0.0
 11
35.5593536881
 21
234.0612165582
 31
0.0
  0
LINE
  5
BC
330
B6
100
AcDbEntity
  8
Default
  6
Continuous
 62
     7
 48
25.4
100
AcDbLine
 10
78.6018192821
 20
102.0612165582
 30
0.0
 11
35.5593536881
 21
102.0612165582
 31
0.0
  0
LINE
  5
BD
330
B6
100
AcDbEntity
  8
Default
  6
Continuous
 62
     7
 48
25.4
100
AcDbLine
 10
37.8093535912
 20
234.0612165582
 30
0.0
 11
37.8093535912
 21
102.0612172734
 31
0.0
  0
TEXT
  5
BE
330
B6
100
AcDbEntity
  8
Default
  6
Continuous
 62
     7
 48
25.4
100
AcDbText
 10
36.6843535912
 20
164.5839441885
 30
0.0
 40
4.5
  1
132
 50
90.0
  7
SEACAD_seiso_ttf
 11
32.1843535912
 21
164.5839441885
 31
0.0
100
AcDbText
 73
     3
  0
ENDBLK
  5
C0
330
B6
100
AcDbEntity
  8
0
100
AcDbBlockEnd
  0
BLOCK
  5
CB
330
C2
100
AcDbEntity
  8
0
100
AcDbBlockBegin
  2
DMBLK27
 70
     0
 71
     0
 10
0.0
 20
0.0
 30
0.0
  3
DMBLK27
  1

  0
HATCH
  5
C3
330
C2
100
AcDbEntity
  8
Default
  6
Continuous
 62
   136
 48
25.4
100
AcDbHatch
 10
0.0
 20
0.0
 30
0.0
210
0.0
220
0.0
230
1.0
  2
SOLID
 70
     1
 71
     0
 91
        1
 92
        1
 93
        3
 72
     1
 10
57.41055943957594
 20
113.9112167332448
 11
58.53555946875738
 21
107.1612165581561
 72
     1
 10
58.53555946875738
 20
107.1612165581561
 11
59.66055949793883
 21
113.9112167332448
 72
     1
 10
59.66055949793883
 20
113.9112167332448
 11
57.41055943957594
 21
113.9112167332448
 97
        0
 75
     0
 76
     1
 98
        0
  0
LWPOLYLINE
  5
C4
330
C2
100
AcDbEntity
  8
Default
  6
Continuous
 62
   136
 48
25.4
370
    20
100
AcDbPolyline
 90
        4
 70
     1
 43
0.00025
 10
57.4105594396
 20
113.9112167332
 10
58.5355594688
 20
107.1612165582
 10
59.6605594979
 20
113.9112167332
 10
57.4105594396
 20
113.9112167332
  0
HATCH
  5
C5
330
C2
100
AcDbEntity
  8
Default
  6
Continuous
 62
   136
 48
25.4
100
AcDbHatch
 10
0.0
 20
0.0
 30
0.0
210
0.0
220
0.0
230
1.0
  2
SOLID
 70
     1
 71
     0
 91
        1
 92
        1
 93
        3
 72
     1
 10
57.41055943957594
 20
95.31121638306753
 11
59.66055949793883
 21
95.31121638306753
 72
     1
 10
59.66055949793883
 20
95.31121638306753
 11
58.53555946875738
 21
102.0612165581562
 72
     1
 10
58.53555946875738
 20
102.0612165581562
 11
57.41055943957594
 21
95.31121638306753
 97
        0
 75
     0
 76
     1
 98
        0
  0
LWPOLYLINE
  5
C6
330
C2
100
AcDbEntity
  8
Default
  6
Continuous
 62
   136
 48
25.4
370
    20
100
AcDbPolyline
 90
        4
 70
     1
 43
0.00025
 10
57.4105594396
 20
95.3112163831
 10
58.5355594688
 20
102.0612165582
 10
59.6605594979
 20
95.3112163831
 10
57.4105594396
 20
95.3112163831
  0
LINE
  5
C7
330
C2
100
AcDbEntity
  8
Default
  6
Continuous
 62
     7
 48
25.4
100
AcDbLine
 10
351.4018192821
 20
107.1612165582
 30
0.0
 11
56.2855595656
 21
107.1612165582
 31
0.0
  0
LINE
  5
C8
330
C2
100
AcDbEntity
  8
Default
  6
Continuous
 62
     7
 48
25.4
100
AcDbLine
 10
78.6018192821
 20
102.0612165582
 30
0.0
 11
56.2855595656
 21
102.0612165582
 31
0.0
  0
LINE
  5
C9
330
C2
100
AcDbEntity
  8
Default
  6
Continuous
 62
     7
 48
25.4
100
AcDbLine
 10
58.5355594688
 20
120.6612169083
 30
0.0
 11
58.5355594688
 21
84.6580100518
 31
0.0
  0
TEXT
  5
CA
330
C2
100
AcDbEntity
  8
Default
  6
Continuous
 62
     7
 48
25.4
100
AcDbText
 10
57.4105594688
 20
86.2330105298
 30
0.0
 40
4.5
  1
5.1
 50
90.0
  7
SEACAD_seiso_ttf
 11
52.9105594688
 21
86.2330105298
 31
0.0
100
AcDbText
 73
     3
  0
ENDBLK
  5
CC
330
C2
100
AcDbEntity
  8
0
100
AcDbBlockEnd
  0
BLOCK
  5
D7
330
CE
100
AcDbEntity
  8
0
100
AcDbBlockBegin
  2
DMBLK28
 70
     0
 71
     0
 10
0.0
 20
0.0
 30
0.0
  3
DMBLK28
  1

  0
HATCH
  5
CF
330
CE
100
AcDbEntity
  8
Default
  6
Continuous
 62
   136
 48
25.4
100
AcDbHatch
 10
0.0
 20
0.0
 30
0.0
210
0.0
220
0.0
230
1.0
  2
SOLID
 70
     1
 71
     0
 91
        1
 92
        1
 93
        3
 72
     1
 10
57.41054892412409
 20
113.9212167332448
 11
58.53554895330554
 21
107.1712165581561
 72
     1
 10
58.53554895330554
 20
107.1712165581561
 11
59.66054898248698
 21
113.9212167332448
 72
     1
 10
59.66054898248698
 20
113.9212167332448
 11
57.41054892412409
 21
113.9212167332448
 97
        0
 75
     0
 76
     1
 98
        0
  0
LWPOLYLINE
  5
D0
330
CE
100
AcDbEntity
  8
Default
  6
Continuous
 62
   136
 48
25.4
370
    20
100
AcDbPolyline
 90
        4
 70
     1
 43
0.00025
 10
57.4105489241
 20
113.9212167332
 10
58.5355489533
 20
107.1712165582
 10
59.6605489825
 20
113.9212167332
 10
57.4105489241
 20
113.9212167332
  0
HATCH
  5
D1
330
CE
100
AcDbEntity
  8
Default
  6
Continuous
 62
   136
 48
25.4
100
AcDbHatch
 10
0.0
 20
0.0
 30
0.0
210
0.0
220
0.0
230
1.0
  2
SOLID
 70
     1
 71
     0
 91
        1
 92
        1
 93
        3
 72
     1
 10
57.41054892412409
 20
180.3520508552469
 11
59.66054898248698
 21
180.3520508552469
 72
     1
 10
59.66054898248698
 20
180.3520508552469
 11
58.53554895330554
 21
187.1020510303356
 72
     1
 10
58.53554895330554
 20
187.1020510303356
 11
57.41054892412409
 21
180.3520508552469
 97
        0
 75
     0
 76
     1
 98
        0
  0
LWPOLYLINE
  5
D2
330
CE
100
AcDbEntity
  8
Default
  6
Continuous
 62
   136
 48
25.4
370
    20
100
AcDbPolyline
 90
        4
 70
     1
 43
0.00025
 10
57.4105489241
 20
180.3520508552
 10
58.5355489533
 20
187.1020510303
 10
59.6605489825
 20
180.3520508552
 10
57.4105489241
 20
180.3520508552
  0
LINE
  5
D3
330
CE
100
AcDbEntity
  8
Default
  6
Continuous
 62
     7
 48
25.4
100
AcDbLine
 10
117.0318192821
 20
107.1712165582
 30
0.0
 11
56.2855490502
 21
107.1712165582
 31
0.0
  0
LINE
  5
D4
330
CE
100
AcDbEntity
  8
Default
  6
Continuous
 62
     7
 48
25.4
100
AcDbLine
 10
247.2216424332
 20
187.102052571
 30
0.0
 11
56.2855490502
 21
187.102052571
 31
0.0
  0
LINE
  5
D5
330
CE
100
AcDbEntity
  8
Default
  6
Continuous
 62
     7
 48
25.4
100
AcDbLine
 10
58.5355489533
 20
107.1712165582
 30
0.0
 11
58.5355489533
 21
187.1020510303
 31
0.0
  0
TEXT
  5
D6
330
CE
100
AcDbEntity
  8
Default
  6
Continuous
 62
     7
 48
25.4
100
AcDbText
 10
57.4105489533
 20
141.3582247033
 30
0.0
 40
4.5
  1
79.93
 50
90.0
  7
SEACAD_seiso_ttf
 11
52.9105489533
 21
141.3582247033
 31
0.0
100
AcDbText
 73
     3
  0
ENDBLK
  5
D8
330
CE
100
AcDbEntity
  8
0
100
AcDbBlockEnd
  0
BLOCK
  5
E2
330
DA
100
AcDbEntity
  8
0
100
AcDbBlockBegin
  2
DMBLK29
 70
     0
 71
     0
 10
0.0
 20
0.0
 30
0.0
  3
DMBLK29
  1

  0
HATCH
  5
DB
330
DA
100
AcDbEntity
  8
Default
  6
Continuous
 62
   136
 48
25.4
100
AcDbHatch
 10
0.0
 20
0.0
 30
0.0
210
0.0
220
0.0
230
1.0
  2
SOLID
 70
     1
 71
     0
 91
        1
 92
        1
 93
        3
 72
     1
 10
235.0307309023639
 20
225.4320527461065
 11
236.1557309315453
 21
218.6820525710178
 72
     1
 10
236.1557309315453
 20
218.6820525710178
 11
237.2807309607268
 21
225.4320527461065
 72
     1
 10
237.2807309607268
 20
225.4320527461065
 11
235.0307309023639
 21
225.4320527461065
 97
        0
 75
     0
 76
     1
 98
        0
  0
LWPOLYLINE
  5
DC
330
DA
100
AcDbEntity
  8
Default
  6
Continuous
 62
   136
 48
25.4
370
    20
100
AcDbPolyline
 90
        4
 70
     1
 43
0.00025
 10
235.0307309024
 20
225.4320527461
 10
236.1557309315
 20
218.682052571
 10
237.2807309607
 20
225.4320527461
 10
235.0307309024
 20
225.4320527461
  0
HATCH
  5
DD
330
DA
100
AcDbEntity
  8
Default
  6
Continuous
 62
   136
 48
25.4
100
AcDbHatch
 10
0.0
 20
0.0
 30
0.0
210
0.0
220
0.0
230
1.0
  2
SOLID
 70
     1
 71
     0
 91
        1
 92
        1
 93
        3
 72
     1
 10
235.0307309023639
 20
227.3112163830675
 11
237.2807309607268
 21
227.3112163830675
 72
     1
 10
237.2807309607268
 20
227.3112163830675
 11
236.1557309315453
 21
234.0612165581561
 72
     1
 10
236.1557309315453
 20
234.0612165581561
 11
235.0307309023639
 21
227.3112163830675
 97
        0
 75
     0
 76
     1
 98
        0
  0
LWPOLYLINE
  5
DE
330
DA
100
AcDbEntity
  8
Default
  6
Continuous
 62
   136
 48
25.4
370
    20
100
AcDbPolyline
 90
        4
 70
     1
 43
0.00025
 10
235.0307309024
 20
227.3112163831
 10
236.1557309315
 20
234.0612165582
 10
237.2807309607
 20
227.3112163831
 10
235.0307309024
 20
227.3112163831
  0
LINE
  5
DF
330
DA
100
AcDbEntity
  8
Default
  6
Continuous
 62
     7
 48
25.4
100
AcDbLine
 10
247.2216424332
 20
218.682052571
 30
0.0
 11
233.9057310284
 21
218.682052571
 31
0.0
  0
LINE
  5
E0
330
DA
100
AcDbEntity
  8
Default
  6
Continuous
 62
     7
 48
25.4
100
AcDbLine
 10
236.1557309315
 20
218.682052571
 30
0.0
 11
236.1557309315
 21
252.1447408979
 31
0.0
  0
TEXT
  5
E1
330
DA
100
AcDbEntity
  8
Default
  6
Continuous
 62
     7
 48
25.4
100
AcDbText
 10
235.0307309315
 20
240.1379229282
 30
0.0
 40
4.5
  1
15.38
 50
90.0
  7
SEACAD_seiso_ttf
 11
230.5307309315
 21
240.1379229282
 31
0.0
100
AcDbText
 73
     3
  0
ENDBLK
  5
E3
330
DA
100
AcDbEntity
  8
0
100
AcDbBlockEnd
  0
BLOCK
  5
ED
330
E5
100
AcDbEntity
  8
0
100
AcDbBlockBegin
  2
DMBLK30
 70
     0
 71
     0
 10
0.0
 20
0.0
 30
0.0
  3
DMBLK30
  1

  0
HATCH
  5
E6
330
E5
100
AcDbEntity
  8
Default
  6
Continuous
 62
   136
 48
25.4
100
AcDbHatch
 10
0.0
 20
0.0
 30
0.0
210
0.0
220
0.0
230
1.0
  2
SOLID
 70
     1
 71
     0
 91
        1
 92
        1
 93
        3
 72
     1
 10
133.2125185123682
 20
213.9520523959292
 11
132.0875184831868
 21
220.7020525710178
 72
     1
 10
132.0875184831868
 20
220.7020525710178
 11
130.9625184540053
 21
213.9520523959292
 72
     1
 10
130.9625184540053
 20
213.9520523959292
 11
133.2125185123682
 21
213.9520523959292
 97
        0
 75
     0
 76
     1
 98
        0
  0
LWPOLYLINE
  5
E7
330
E5
100
AcDbEntity
  8
Default
  6
Continuous
 62
   136
 48
25.4
370
    20
100
AcDbPolyline
 90
        4
 70
     1
 43
0.00025
 10
133.2125185124
 20
213.9520523959
 10
132.0875184832
 20
220.702052571
 10
130.962518454
 20
213.9520523959
 10
133.2125185124
 20
213.9520523959
  0
HATCH
  5
E8
330
E5
100
AcDbEntity
  8
Default
  6
Continuous
 62
   136
 48
25.4
100
AcDbHatch
 10
0.0
 20
0.0
 30
0.0
210
0.0
220
0.0
230
1.0
  2
SOLID
 70
     1
 71
     0
 91
        1
 92
        1
 93
        3
 72
     1
 10
133.2125185123682
 20
240.8112167332448
 11
130.9625184540053
 21
240.8112167332448
 72
     1
 10
130.9625184540053
 20
240.8112167332448
 11
132.0875184831868
 21
234.0612165581561
 72
     1
 10
132.0875184831868
 20
234.0612165581561
 11
133.2125185123682
 21
240.8112167332448
 97
        0
 75
     0
 76
     1
 98
        0
  0
LWPOLYLINE
  5
E9
330
E5
100
AcDbEntity
  8
Default
  6
Continuous
 62
   136
 48
25.4
370
    20
100
AcDbPolyline
 90
        4
 70
     1
 43
0.00025
 10
133.2125185124
 20
240.8112167332
 10
132.0875184832
 20
234.0612165582
 10
130.962518454
 20
240.8112167332
 10
133.2125185124
 20
240.8112167332
  0
LINE
  5
EA
330
E5
100
AcDbEntity
  8
Default
  6
Continuous
 62
     7
 48
25.4
100
AcDbLine
 10
122.1916424332
 20
220.702052571
 30
0.0
 11
134.3375183863
 21
220.702052571
 31
0.0
  0
LINE
  5
EB
330
E5
100
AcDbEntity
  8
Default
  6
Continuous
 62
     7
 48
25.4
100
AcDbLine
 10
132.0875184832
 20
207.2020522208
 30
0.0
 11
132.0875184832
 21
253.4028594272
 31
0.0
  0
TEXT
  5
EC
330
E5
100
AcDbEntity
  8
Default
  6
Continuous
 62
     7
 48
25.4
100
AcDbText
 10
130.9625184832
 20
241.7028582291
 30
0.0
 40
4.5
  1
13.36
 50
90.0
  7
SEACAD_seiso_ttf
 11
126.4625184832
 21
241.7028582291
 31
0.0
100
AcDbText
 73
     3
  0
ENDBLK
  5
EE
330
E5
100
AcDbEntity
  8
0
100
AcDbBlockEnd
  0
BLOCK
  5
F9
330
F0
100
AcDbEntity
  8
0
100
AcDbBlockBegin
  2
DMBLK31
 70
     0
 71
     0
 10
0.0
 20
0.0
 30
0.0
  3
DMBLK31
  1

  0
HATCH
  5
F1
330
F0
100
AcDbEntity
  8
Default
  6
Continuous
 62
   136
 48
25.4
100
AcDbHatch
 10
0.0
 20
0.0
 30
0.0
210
0.0
220
0.0
230
1.0
  2
SOLID
 70
     1
 71
     0
 91
        1
 92
        1
 93
        3
 72
     1
 10
60.93165240875496
 20
222.1512167332448
 11
62.0566524379364
 21
215.4012165581562
 72
     1
 10
62.0566524379364
 20
215.4012165581562
 11
63.18165246711784
 21
222.1512167332448
 72
     1
 10
63.18165246711784
 20
222.1512167332448
 11
60.93165240875496
 21
222.1512167332448
 97
        0
 75
     0
 76
     1
 98
        0
  0
LWPOLYLINE
  5
F2
330
F0
100
AcDbEntity
  8
Default
  6
Continuous
 62
   136
 48
25.4
370
    20
100
AcDbPolyline
 90
        4
 70
     1
 43
0.00025
 10
60.9316524088
 20
222.1512167332
 10
62.0566524379
 20
215.4012165582
 10
63.1816524671
 20
222.1512167332
 10
60.9316524088
 20
222.1512167332
  0
HATCH
  5
F3
330
F0
100
AcDbEntity
  8
Default
  6
Continuous
 62
   136
 48
25.4
100
AcDbHatch
 10
0.0
 20
0.0
 30
0.0
210
0.0
220
0.0
230
1.0
  2
SOLID
 70
     1
 71
     0
 91
        1
 92
        1
 93
        3
 72
     1
 10
60.93165240875496
 20
227.3112159771599
 11
63.18165246711784
 21
227.3112159771599
 72
     1
 10
63.18165246711784
 20
227.3112159771599
 11
62.0566524379364
 21
234.0612161522486
 72
     1
 10
62.0566524379364
 20
234.0612161522486
 11
60.93165240875496
 21
227.3112159771599
 97
        0
 75
     0
 76
     1
 98
        0
  0
LWPOLYLINE
  5
F4
330
F0
100
AcDbEntity
  8
Default
  6
Continuous
 62
   136
 48
25.4
370
    20
100
AcDbPolyline
 90
        4
 70
     1
 43
0.00025
 10
60.9316524088
 20
227.3112159772
 10
62.0566524379
 20
234.0612161522
 10
63.1816524671
 20
227.3112159772
 10
60.9316524088
 20
227.3112159772
  0
LINE
  5
F5
330
F0
100
AcDbEntity
  8
Default
  6
Continuous
 62
     7
 48
25.4
100
AcDbLine
 10
80.4518192821
 20
215.4012165582
 30
0.0
 11
59.8066525348
 21
215.4012165582
 31
0.0
  0
LINE
  5
F6
330
F0
100
AcDbEntity
  8
Default
  6
Continuous
 62
     7
 48
25.4
100
AcDbLine
 10
78.6038192821
 20
234.0612165582
 30
0.0
 11
59.8066525348
 21
234.0612165582
 31
0.0
  0
LINE
  5
F7
330
F0
100
AcDbEntity
  8
Default
  6
Continuous
 62
     7
 48
25.4
100
AcDbLine
 10
62.0566524379
 20
215.4012165582
 30
0.0
 11
62.0566524379
 21
234.0612161522
 31
0.0
  0
TEXT
  5
F8
330
F0
100
AcDbEntity
  8
Default
  6
Continuous
 62
     7
 48
25.4
100
AcDbText
 10
60.9316524379
 20
219.2084890825
 30
0.0
 40
4.5
  1
18.66
 50
90.0
  7
SEACAD_seiso_ttf
 11
56.4316524379
 21
219.2084890825
 31
0.0
100
AcDbText
 73
     3
  0
ENDBLK
  5
FA
330
F0
100
AcDbEntity
  8
0
100
AcDbBlockEnd
  0
BLOCK
  5
104
330
FC
100
AcDbEntity
  8
0
100
AcDbBlockBegin
  2
DMBLK32
 70
     0
 71
     0
 10
0.0
 20
0.0
 30
0.0
  3
DMBLK32
  1

  0
HATCH
  5
FD
330
FC
100
AcDbEntity
  8
Default
  6
Continuous
 62
   136
 48
25.4
100
AcDbHatch
 10
0.0
 20
0.0
 30
0.0
210
0.0
220
0.0
230
1.0
  2
SOLID
 70
     1
 71
     0
 91
        1
 92
        1
 93
        3
 72
     1
 10
339.8814109348418
 20
222.1412167332448
 11
341.0064109640232
 21
215.3912165581561
 72
     1
 10
341.0064109640232
 20
215.3912165581561
 11
342.1314109932047
 21
222.1412167332448
 72
     1
 10
342.1314109932047
 20
222.1412167332448
 11
339.8814109348418
 21
222.1412167332448
 97
        0
 75
     0
 76
     1
 98
        0
  0
LWPOLYLINE
  5
FE
330
FC
100
AcDbEntity
  8
Default
  6
Continuous
 62
   136
 48
25.4
370
    20
100
AcDbPolyline
 90
        4
 70
     1
 43
0.00025
 10
339.8814109348
 20
222.1412167332
 10
341.006410964
 20
215.3912165582
 10
342.1314109932
 20
222.1412167332
 10
339.8814109348
 20
222.1412167332
  0
HATCH
  5
FF
330
FC
100
AcDbEntity
  8
Default
  6
Continuous
 62
   136
 48
25.4
100
AcDbHatch
 10
0.0
 20
0.0
 30
0.0
210
0.0
220
0.0
230
1.0
  2
SOLID
 70
     1
 71
     0
 91
        1
 92
        1
 93
        3
 72
     1
 10
339.8814109348418
 20
227.3112165189661
 11
342.1314109932047
 21
227.3112165189661
 72
     1
 10
342.1314109932047
 20
227.3112165189661
 11
341.0064109640232
 21
234.0612166940547
 72
     1
 10
341.0064109640232
 20
234.0612166940547
 11
339.8814109348418
 21
227.3112165189661
 97
        0
 75
     0
 76
     1
 98
        0
  0
LWPOLYLINE
  5
100
330
FC
100
AcDbEntity
  8
Default
  6
Continuous
 62
   136
 48
25.4
370
    20
100
AcDbPolyline
 90
        4
 70
     1
 43
0.00025
 10
339.8814109348
 20
227.311216519
 10
341.006410964
 20
234.0612166941
 10
342.1314109932
 20
227.311216519
 10
339.8814109348
 20
227.311216519
  0
LINE
  5
101
330
FC
100
AcDbEntity
  8
Default
  6
Continuous
 62
     7
 48
25.4
100
AcDbLine
 10
351.7918192821
 20
215.3912165582
 30
0.0
 11
338.7564110609
 21
215.3912165582
 31
0.0
  0
LINE
  5
102
330
FC
100
AcDbEntity
  8
Default
  6
Continuous
 62
     7
 48
25.4
100
AcDbLine
 10
341.006410964
 20
215.3912165582
 30
0.0
 11
341.006410964
 21
234.0612166941
 31
0.0
  0
TEXT
  5
103
330
FC
100
AcDbEntity
  8
Default
  6
Continuous
 62
     7
 48
25.4
100
AcDbText
 10
339.881410964
 20
219.1523529897
 30
0.0
 40
4.5
  1
18.67
 50
90.0
  7
SEACAD_seiso_ttf
 11
335.381410964
 21
219.1523529897
 31
0.0
100
AcDbText
 73
     3
  0
ENDBLK
  5
105
330
FC
100
AcDbEntity
  8
0
100
AcDbBlockEnd
  0
BLOCK
  5
110
330
107
100
AcDbEntity
  8
0
100
AcDbBlockBegin
  2
DMBLK33
 70
     0
 71
     0
 10
0.0
 20
0.0
 30
0.0
  3
DMBLK33
  1

  0
HATCH
  5
108
330
107
100
AcDbEntity
  8
Default
  6
Continuous
 62
   136
 48
25.4
100
AcDbHatch
 10
0.0
 20
0.0
 30
0.0
210
0.0
220
0.0
230
1.0
  2
SOLID
 70
     1
 71
     0
 91
        1
 92
        1
 93
        3
 72
     1
 10
377.7336960183244
 20
82.31121638306752
 11
376.608695989143
 21
89.06121655815616
 72
     1
 10
376.608695989143
 20
89.06121655815616
 11
375.4836959599616
 21
82.31121638306752
 72
     1
 10
375.4836959599616
 20
82.31121638306752
 11
377.7336960183244
 21
82.31121638306752
 97
        0
 75
     0
 76
     1
 98
        0
  0
LWPOLYLINE
  5
109
330
107
100
AcDbEntity
  8
Default
  6
Continuous
 62
   136
 48
25.4
370
    20
100
AcDbPolyline
 90
        4
 70
     1
 43
0.00025
 10
377.7336960183
 20
82.3112163831
 10
376.6086959891
 20
89.0612165582
 10
375.48369596
 20
82.3112163831
 10
377.7336960183
 20
82.3112163831
  0
HATCH
  5
10A
330
107
100
AcDbEntity
  8
Default
  6
Continuous
 62
   136
 48
25.4
100
AcDbHatch
 10
0.0
 20
0.0
 30
0.0
210
0.0
220
0.0
230
1.0
  2
SOLID
 70
     1
 71
     0
 91
        1
 92
        1
 93
        3
 72
     1
 10
377.7336960183244
 20
108.8112167332448
 11
375.4836959599616
 21
108.8112167332448
 72
     1
 10
375.4836959599616
 20
108.8112167332448
 11
376.608695989143
 21
102.0612165581562
 72
     1
 10
376.608695989143
 20
102.0612165581562
 11
377.7336960183244
 21
108.8112167332448
 97
        0
 75
     0
 76
     1
 98
        0
  0
LWPOLYLINE
  5
10B
330
107
100
AcDbEntity
  8
Default
  6
Continuous
 62
   136
 48
25.4
370
    20
100
AcDbPolyline
 90
        4
 70
     1
 43
0.00025
 10
377.7336960183
 20
108.8112167332
 10
376.6086959891
 20
102.0612165582
 10
375.48369596
 20
108.8112167332
 10
377.7336960183
 20
108.8112167332
  0
LINE
  5
10C
330
107
100
AcDbEntity
  8
Default
  6
Continuous
 62
     7
 48
25.4
100
AcDbLine
 10
222.6018194721
 20
89.0612165582
 30
0.0
 11
378.8586958923
 21
89.0612165582
 31
0.0
  0
LINE
  5
10D
330
107
100
AcDbEntity
  8
Default
  6
Continuous
 62
     7
 48
25.4
100
AcDbLine
 10
362.6018226199
 20
102.0612165582
 30
0.0
 11
378.8586958923
 21
102.0612165582
 31
0.0
  0
LINE
  5
10E
330
107
100
AcDbEntity
  8
Default
  6
Continuous
 62
     7
 48
25.4
100
AcDbLine
 10
376.6086959891
 20
75.561216208
 30
0.0
 11
376.6086959891
 21
132.0570456933
 31
0.0
  0
TEXT
  5
10F
330
107
100
AcDbEntity
  8
Default
  6
Continuous
 62
     7
 48
25.4
100
AcDbText
 10
375.4836959891
 20
126.2888614904
 30
0.0
 40
4.5
  1
13
 50
90.0
  7
SEACAD_seiso_ttf
 11
370.9836959891
 21
126.2888614904
 31
0.0
100
AcDbText
 73
     3
  0
ENDBLK
  5
111
330
107
100
AcDbEntity
  8
0
100
AcDbBlockEnd
  0
BLOCK
  5
11B
330
113
100
AcDbEntity
  8
0
100
AcDbBlockBegin
  2
DMBLK34
 70
     0
 71
     0
 10
0.0
 20
0.0
 30
0.0
  3
DMBLK34
  1

  0
HATCH
  5
114
330
113
100
AcDbEntity
  8
Default
  6
Continuous
 62
   136
 48
25.4
100
AcDbHatch
 10
0.0
 20
0.0
 30
0.0
210
0.0
220
0.0
230
1.0
  2
SOLID
 70
     1
 71
     0
 91
        1
 92
        1
 93
        3
 72
     1
 10
260.7547635184388
 20
88.81121638306752
 11
259.6297634892574
 21
95.56121655815616
 72
     1
 10
259.6297634892574
 20
95.56121655815616
 11
258.504763460076
 21
88.81121638306752
 72
     1
 10
258.504763460076
 20
88.81121638306752
 11
260.7547635184388
 21
88.81121638306752
 97
        0
 75
     0
 76
     1
 98
        0
  0
LWPOLYLINE
  5
115
330
113
100
AcDbEntity
  8
Default
  6
Continuous
 62
   136
 48
25.4
370
    20
100
AcDbPolyline
 90
        4
 70
     1
 43
0.00025
 10
260.7547635184
 20
88.8112163831
 10
259.6297634893
 20
95.5612165582
 10
258.5047634601
 20
88.8112163831
 10
260.7547635184
 20
88.8112163831
  0
HATCH
  5
116
330
113
100
AcDbEntity
  8
Default
  6
Continuous
 62
   136
 48
25.4
100
AcDbHatch
 10
0.0
 20
0.0
 30
0.0
210
0.0
220
0.0
230
1.0
  2
SOLID
 70
     1
 71
     0
 91
        1
 92
        1
 93
        3
 72
     1
 10
260.7547635184388
 20
108.8112167332448
 11
258.504763460076
 21
108.8112167332448
 72
     1
 10
258.504763460076
 20
108.8112167332448
 11
259.6297634892574
 21
102.0612165581562
 72
     1
 10
259.6297634892574
 20
102.0612165581562
 11
260.7547635184388
 21
108.8112167332448
 97
        0
 75
     0
 76
     1
 98
        0
  0
LWPOLYLINE
  5
117
330
113
100
AcDbEntity
  8
Default
  6
Continuous
 62
   136
 48
25.4
370
    20
100
AcDbPolyline
 90
        4
 70
     1
 43
0.00025
 10
260.7547635184
 20
108.8112167332
 10
259.6297634893
 20
102.0612165582
 10
258.5047634601
 20
108.8112167332
 10
260.7547635184
 20
108.8112167332
  0
LINE
  5
118
330
113
100
AcDbEntity
  8
Default
  6
Continuous
 62
     7
 48
25.4
100
AcDbLine
 10
220.6018192821
 20
95.5612165582
 30
0.0
 11
261.8797633924
 21
95.5612165582
 31
0.0
  0
LINE
  5
119
330
113
100
AcDbEntity
  8
Default
  6
Continuous
 62
     7
 48
25.4
100
AcDbLine
 10
259.6297634893
 20
73.1742409717
 30
0.0
 11
259.6297634893
 21
115.5612161111
 31
0.0
  0
TEXT
  5
11A
330
113
100
AcDbEntity
  8
Default
  6
Continuous
 62
     7
 48
25.4
100
AcDbText
 10
258.5047634893
 20
74.7492409445
 30
0.0
 40
4.5
  1
6.5
 50
90.0
  7
SEACAD_seiso_ttf
 11
254.0047634893
 21
74.7492409445
 31
0.0
100
AcDbText
 73
     3
  0
ENDBLK
  5
11C
330
113
100
AcDbEntity
  8
0
100
AcDbBlockEnd
  0
BLOCK
  5
127
330
11E
100
AcDbEntity
  8
0
100
AcDbBlockBegin
  2
DMBLK35
 70
     0
 71
     0
 10
0.0
 20
0.0
 30
0.0
  3
DMBLK35
  1

  0
HATCH
  5
11F
330
11E
100
AcDbEntity
  8
Default
  6
Continuous
 62
   136
 48
25.4
100
AcDbHatch
 10
0.0
 20
0.0
 30
0.0
210
0.0
220
0.0
230
1.0
  2
SOLID
 70
     1
 71
     0
 91
        1
 92
        1
 93
        3
 72
     1
 10
124.2301868040933
 20
178.6554377242726
 11
117.4801866290047
 21
177.5304376950911
 72
     1
 10
117.4801866290047
 20
177.5304376950911
 11
124.2301868040933
 21
176.4054376659097
 72
     1
 10
124.2301868040933
 20
176.4054376659097
 11
124.2301868040933
 21
178.6554377242726
 97
        0
 75
     0
 76
     1
 98
        0
  0
LWPOLYLINE
  5
120
330
11E
100
AcDbEntity
  8
Default
  6
Continuous
 62
   136
 48
25.4
370
    20
100
AcDbPolyline
 90
        4
 70
     1
 43
0.00025
 10
124.2301868041
 20
178.6554377243
 10
117.480186629
 20
177.5304376951
 10
124.2301868041
 20
176.4054376659
 10
124.2301868041
 20
178.6554377243
  0
HATCH
  5
121
330
11E
100
AcDbEntity
  8
Default
  6
Continuous
 62
   136
 48
25.4
100
AcDbHatch
 10
0.0
 20
0.0
 30
0.0
210
0.0
220
0.0
230
1.0
  2
SOLID
 70
     1
 71
     0
 91
        1
 92
        1
 93
        3
 72
     1
 10
250.4983547841086
 20
178.6554377242726
 11
250.4983547841086
 21
176.4054376659097
 72
     1
 10
250.4983547841086
 20
176.4054376659097
 11
257.2483549591972
 21
177.5304376950911
 72
     1
 10
257.2483549591972
 20
177.5304376950911
 11
250.4983547841086
 21
178.6554377242726
 97
        0
 75
     0
 76
     1
 98
        0
  0
LWPOLYLINE
  5
122
330
11E
100
AcDbEntity
  8
Default
  6
Continuous
 62
   136
 48
25.4
370
    20
100
AcDbPolyline
 90
        4
 70
     1
 43
0.00025
 10
250.4983547841
 20
178.6554377243
 10
257.2483549592
 20
177.5304376951
 10
250.4983547841
 20
176.4054376659
 10
250.4983547841
 20
178.6554377243
  0
LINE
  5
123
330
11E
100
AcDbEntity
  8
Default
  6
Continuous
 62
     7
 48
25.4
100
AcDbLine
 10
117.480186629
 20
172.3844818643
 30
0.0
 11
117.480186629
 21
179.7804375982
 31
0.0
  0
LINE
  5
124
330
11E
100
AcDbEntity
  8
Default
  6
Continuous
 62
     7
 48
25.4
100
AcDbLine
 10
257.2483498943
 20
155.9787675786
 30
0.0
 11
257.2483498943
 21
179.7804375982
 31
0.0
  0
LINE
  5
125
330
11E
100
AcDbEntity
  8
Default
  6
Continuous
 62
     7
 48
25.4
100
AcDbLine
 10
117.480186629
 20
177.5304376951
 30
0.0
 11
257.2483549592
 21
177.5304376951
 31
0.0
  0
TEXT
  5
126
330
11E
100
AcDbEntity
  8
Default
  6
Continuous
 62
     7
 48
25.4
100
AcDbText
 10
180.6142707941
 20
178.6554376951
 30
0.0
 40
4.5
  1
139.77
  7
SEACAD_seiso_ttf
 11
180.6142707941
 21
183.1554376951
 31
0.0
100
AcDbText
 73
     3
  0
ENDBLK
  5
128
330
11E
100
AcDbEntity
  8
0
100
AcDbBlockEnd
  0
BLOCK
  5
133
330
12A
100
AcDbEntity
  8
0
100
AcDbBlockBegin
  2
DMBLK36
 70
     0
 71
     0
 10
0.0
 20
0.0
 30
0.0
  3
DMBLK36
  1

  0
HATCH
  5
12B
330
12A
100
AcDbEntity
  8
Default
  6
Continuous
 62
   136
 48
25.4
100
AcDbHatch
 10
0.0
 20
0.0
 30
0.0
210
0.0
220
0.0
230
1.0
  2
SOLID
 70
     1
 71
     0
 91
        1
 92
        1
 93
        3
 72
     1
 10
269.3619085660583
 20
165.63448168919
 11
268.2369085368769
 21
172.3844818642787
 72
     1
 10
268.2369085368769
 20
172.3844818642787
 11
267.1119085076954
 21
165.63448168919
 72
     1
 10
267.1119085076954
 20
165.63448168919
 11
269.3619085660583
 21
165.63448168919
 97
        0
 75
     0
 76
     1
 98
        0
  0
LWPOLYLINE
  5
12C
330
12A
100
AcDbEntity
  8
Default
  6
Continuous
 62
   136
 48
25.4
370
    20
100
AcDbPolyline
 90
        4
 70
     1
 43
0.00025
 10
269.3619085661
 20
165.6344816892
 10
268.2369085369
 20
172.3844818643
 10
267.1119085077
 20
165.6344816892
 10
269.3619085661
 20
165.6344816892
  0
HATCH
  5
12D
330
12A
100
AcDbEntity
  8
Default
  6
Continuous
 62
   136
 48
25.4
100
AcDbHatch
 10
0.0
 20
0.0
 30
0.0
210
0.0
220
0.0
230
1.0
  2
SOLID
 70
     1
 71
     0
 91
        1
 92
        1
 93
        3
 72
     1
 10
269.3619085660583
 20
146.3230526877991
 11
267.1119085076954
 21
146.3230526877991
 72
     1
 10
267.1119085076954
 20
146.3230526877991
 11
268.2369085368769
 21
139.5730525127104
 72
     1
 10
268.2369085368769
 20
139.5730525127104
 11
269.3619085660583
 21
146.3230526877991
 97
        0
 75
     0
 76
     1
 98
        0
  0
LWPOLYLINE
  5
12E
330
12A
100
AcDbEntity
  8
Default
  6
Continuous
 62
   136
 48
25.4
370
    20
100
AcDbPolyline
 90
        4
 70
     1
 43
0.00025
 10
269.3619085661
 20
146.3230526878
 10
268.2369085369
 20
139.5730525127
 10
267.1119085077
 20
146.3230526878
 10
269.3619085661
 20
146.3230526878
  0
LINE
  5
12F
330
12A
100
AcDbEntity
  8
Default
  6
Continuous
 62
     7
 48
25.4
100
AcDbLine
 10
257.2483498943
 20
172.3844818643
 30
0.0
 11
270.48690844
 21
172.3844818643
 31
0.0
  0
LINE
  5
130
330
12A
100
AcDbEntity
  8
Default
  6
Continuous
 62
     7
 48
25.4
100
AcDbLine
 10
257.2483498943
 20
139.5730532929
 30
0.0
 11
270.48690844
 21
139.5730532929
 31
0.0
  0
LINE
  5
131
330
12A
100
AcDbEntity
  8
Default
  6
Continuous
 62
     7
 48
25.4
100
AcDbLine
 10
268.2369085369
 20
172.3844818643
 30
0.0
 11
268.2369085369
 21
139.5730525127
 31
0.0
  0
TEXT
  5
132
330
12A
100
AcDbEntity
  8
Default
  6
Continuous
 62
     7
 48
25.4
100
AcDbText
 10
267.1119085369
 20
150.6605853703
 30
0.0
 40
4.5
  1
32.81
 50
90.0
  7
SEACAD_seiso_ttf
 11
262.6119085369
 21
150.6605853703
 31
0.0
100
AcDbText
 73
     3
  0
ENDBLK
  5
134
330
12A
100
AcDbEntity
  8
0
100
AcDbBlockEnd
  0
BLOCK
  5
13E
330
136
100
AcDbEntity
  8
0
100
AcDbBlockBegin
  2
DMBLK37
 70
     0
 71
     0
 10
0.0
 20
0.0
 30
0.0
  3
DMBLK37
  1

  0
HATCH
  5
137
330
136
100
AcDbEntity
  8
Default
  6
Continuous
 62
   136
 48
25.4
100
AcDbHatch
 10
0.0
 20
0.0
 30
0.0
210
0.0
220
0.0
230
1.0
  2
SOLID
 70
     1
 71
     0
 91
        1
 92
        1
 93
        3
 72
     1
 10
358.8518191069773
 20
128.2836667257177
 11
365.6018192820659
 21
129.4086667548991
 72
     1
 10
365.6018192820659
 20
129.4086667548991
 11
358.8518191069773
 21
130.5336667840806
 72
     1
 10
358.8518191069773
 20
130.5336667840806
 11
358.8518191069773
 21
128.2836667257177
 97
        0
 75
     0
 76
     1
 98
        0
  0
LWPOLYLINE
  5
138
330
136
100
AcDbEntity
  8
Default
  6
Continuous
 62
   136
 48
25.4
370
    20
100
AcDbPolyline
 90
        4
 70
     1
 43
0.00025
 10
358.851819107
 20
128.2836667257
 10
365.6018192821
 20
129.4086667549
 10
358.851819107
 20
130.5336667841
 10
358.851819107
 20
128.2836667257
  0
HATCH
  5
139
330
136
100
AcDbEntity
  8
Default
  6
Continuous
 62
   136
 48
25.4
100
AcDbHatch
 10
0.0
 20
0.0
 30
0.0
210
0.0
220
0.0
230
1.0
  2
SOLID
 70
     1
 71
     0
 91
        1
 92
        1
 93
        3
 72
     1
 10
263.9983536616376
 20
128.2836667257177
 11
263.9983536616376
 21
130.5336667840806
 72
     1
 10
263.9983536616376
 20
130.5336667840806
 11
257.248353486549
 21
129.4086667548991
 72
     1
 10
257.248353486549
 20
129.4086667548991
 11
263.9983536616376
 21
128.2836667257177
 97
        0
 75
     0
 76
     1
 98
        0
  0
LWPOLYLINE
  5
13A
330
136
100
AcDbEntity
  8
Default
  6
Continuous
 62
   136
 48
25.4
370
    20
100
AcDbPolyline
 90
        4
 70
     1
 43
0.00025
 10
263.9983536616
 20
128.2836667257
 10
257.2483534865
 20
129.4086667549
 10
263.9983536616
 20
130.5336667841
 10
263.9983536616
 20
128.2836667257
  0
LINE
  5
13B
330
136
100
AcDbEntity
  8
Default
  6
Continuous
 62
     7
 48
25.4
100
AcDbLine
 10
257.2483498943
 20
139.5730525127
 30
0.0
 11
257.2483498943
 21
127.1586668518
 31
0.0
  0
LINE
  5
13C
330
136
100
AcDbEntity
  8
Default
  6
Continuous
 62
     7
 48
25.4
100
AcDbLine
 10
365.6018192821
 20
129.4086667549
 30
0.0
 11
257.2483534865
 21
129.4086667549
 31
0.0
  0
TEXT
  5
13D
330
136
100
AcDbEntity
  8
Default
  6
Continuous
 62
     7
 48
25.4
100
AcDbText
 10
304.8796318389
 20
130.5336667549
 30
0.0
 40
4.5
  1
108.35
  7
SEACAD_seiso_ttf
 11
304.8796318389
 21
135.0336667549
 31
0.0
100
AcDbText
 73
     3
  0
ENDBLK
  5
13F
330
136
100
AcDbEntity
  8
0
100
AcDbBlockEnd
  0
BLOCK
  5
148
330
141
100
AcDbEntity
  8
0
100
AcDbBlockBegin
  2
DMBLK38
 70
     0
 71
     0
 10
0.0
 20
0.0
 30
0.0
  3
DMBLK38
  1

  0
HATCH
  5
142
330
141
100
AcDbEntity
  8
Default
  6
Continuous
 62
   136
 48
25.4
100
AcDbHatch
 10
0.0
 20
0.0
 30
0.0
210
0.0
220
0.0
230
1.0
  2
SOLID
 70
     1
 71
     0
 91
        1
 92
        1
 93
        3
 72
     1
 10
185.7352637249734
 20
132.8230531177614
 11
187.9852637833363
 21
132.8230531177614
 72
     1
 10
187.9852637833363
 20
132.8230531177614
 11
186.8602637541549
 21
139.5730532928501
 72
     1
 10
186.8602637541549
 20
139.5730532928501
 11
185.7352637249734
 21
132.8230531177614
 97
        0
 75
     0
 76
     1
 98
        0
  0
LWPOLYLINE
  5
143
330
141
100
AcDbEntity
  8
Default
  6
Continuous
 62
   136
 48
25.4
370
    20
100
AcDbPolyline
 90
        4
 70
     1
 43
0.00025
 10
185.735263725
 20
132.8230531178
 10
186.8602637542
 20
139.5730532929
 10
187.9852637833
 20
132.8230531178
 10
185.735263725
 20
132.8230531178
  0
HATCH
  5
144
330
141
100
AcDbEntity
  8
Default
  6
Continuous
 62
   136
 48
25.4
100
AcDbHatch
 10
0.0
 20
0.0
 30
0.0
210
0.0
220
0.0
230
1.0
  2
SOLID
 70
     1
 71
     0
 91
        1
 92
        1
 93
        3
 72
     1
 10
185.7352637249734
 20
108.8112167305444
 11
186.8602637541549
 21
102.0612165554557
 72
     1
 10
186.8602637541549
 20
102.0612165554557
 11
187.9852637833363
 21
108.8112167305444
 72
     1
 10
187.9852637833363
 20
108.8112167305444
 11
185.7352637249734
 21
108.8112167305444
 97
        0
 75
     0
 76
     1
 98
        0
  0
LWPOLYLINE
  5
145
330
141
100
AcDbEntity
  8
Default
  6
Continuous
 62
   136
 48
25.4
370
    20
100
AcDbPolyline
 90
        4
 70
     1
 43
0.00025
 10
185.735263725
 20
108.8112167305
 10
186.8602637542
 20
102.0612165555
 10
187.9852637833
 20
108.8112167305
 10
185.735263725
 20
108.8112167305
  0
LINE
  5
146
330
141
100
AcDbEntity
  8
Default
  6
Continuous
 62
     7
 48
25.4
100
AcDbLine
 10
186.8602637542
 20
139.5730532929
 30
0.0
 11
186.8602637542
 21
102.0612165555
 31
0.0
  0
TEXT
  5
147
330
141
100
AcDbEntity
  8
Default
  6
Continuous
 62
     7
 48
25.4
100
AcDbText
 10
185.7352637542
 20
115.6012258332
 30
0.0
 40
4.5
  1
37.51
 50
90.0
  7
SEACAD_seiso_ttf
 11
181.2352637542
 21
115.6012258332
 31
0.0
100
AcDbText
 73
     3
  0
ENDBLK
  5
149
330
141
100
AcDbEntity
  8
0
100
AcDbBlockEnd
  0
ENDSEC
  0
SECTION
  2
ENTITIES
  0
TEXT
  5
2B
330
1F
100
AcDbEntity
  8
Default
  6
Continuous
 62
     7
 48
25.4
100
AcDbText
 10
342.7696550317
 20
42.5173136411
 30
0.0
 40
2.5
  1
Yuris Acosta
  7
SEACAD_arial_ttfI
 11
342.7696550317
 21
45.0173136411
 31
0.0
100
AcDbText
 73
     3
  0
INSERT
  5
2E
330
1F
100
AcDbEntity
  8
Default
100
AcDbBlockReference
  2
SEANNOT_GROUP
 10
0.0
 20
0.0
 30
0.0
  0
INSERT
  5
35
330
1F
100
AcDbEntity
  8
Default
100
AcDbBlockReference
  2
SE
 10
0.0
 20
0.0
 30
0.0
  0
DIMENSION
  5
6E
330
1F
100
AcDbEntity
  8
Default
  6
Continuous
 62
     7
 48
25.4
100
AcDbDimension
  2
DMBLK20
 10
75.6018192821
 20
275.6166401159
 30
0.0
 11
220.6018151097
 21
275.6166401159
 31
0.0
 70
   161
  1
\A1;<>
 71
     5
 42
-1.0
  3
UNI
100
AcDbAlignedDimension
 13
75.6018192821
 23
221.0612165582
 33
0.0
 14
365.6018192821
 24
221.0612165582
 34
0.0
  0
DIMENSION
  5
7A
330
1F
100
AcDbEntity
  8
Default
  6
Continuous
 62
     7
 48
25.4
100
AcDbDimension
  2
DMBLK21
 10
351.7918192821
 20
259.7394230615
 30
0.0
 11
374.5398840808
 21
259.7394230615
 31
0.0
 70
   160
  1
\A1;<>
 71
     5
 42
-1.0
  3
UNI
100
AcDbAlignedDimension
 13
365.6018192821
 23
221.0612165582
 33
0.0
 14
351.7918192821
 24
215.3912165582
 34
0.0
100
AcDbRotatedDimension
  0
DIMENSION
  5
86
330
1F
100
AcDbEntity
  8
Default
  6
Continuous
 62
     7
 48
25.4
100
AcDbDimension
  2
DMBLK22
 10
247.2216424332
 20
259.7394229292
 30
0.0
 11
299.5067291932
 21
259.7394229292
 31
0.0
 70
   160
  1
\A1;<>
 71
     5
 42
-1.0
  3
UNI
100
AcDbAlignedDimension
 13
351.7918192821
 23
215.3912165582
 33
0.0
 14
247.2216424332
 24
187.102052571
 34
0.0
100
AcDbRotatedDimension
  0
DIMENSION
  5
92
330
1F
100
AcDbEntity
  8
Default
  6
Continuous
 62
     7
 48
25.4
100
AcDbDimension
  2
DMBLK23
 10
247.2216424332
 20
259.764346482
 30
0.0
 11
184.7066444144
 21
259.764346482
 31
0.0
 70
   161
  1
\A1;<>
 71
     5
 42
-1.0
  3
UNI
100
AcDbAlignedDimension
 13
247.2216424332
 23
187.102052571
 33
0.0
 14
122.1916424332
 24
186.702052571
 34
0.0
1001
ACAD
1000
DSTYLE
1002
{
1070
   271
1070
     5
1070
   272
1070
     5
1070
     0
1002
}
  0
DIMENSION
  5
9E
330
1F
100
AcDbEntity
  8
Default
  6
Continuous
 62
     7
 48
25.4
100
AcDbDimension
  2
DMBLK24
 10
122.1916424332
 20
259.6895537888
 30
0.0
 11
101.3217299991
 21
259.6895537888
 31
0.0
 70
   160
  1
\A1;<>
 71
     5
 42
-1.0
  3
UNI
100
AcDbAlignedDimension
 13
80.4518192821
 23
215.4012165582
 33
0.0
 14
122.1916424332
 24
220.702052571
 34
0.0
100
AcDbRotatedDimension
  0
DIMENSION
  5
AA
330
1F
100
AcDbEntity
  8
Default
  6
Continuous
 62
     7
 48
25.4
100
AcDbDimension
  2
DMBLK25
 10
351.4018192821
 20
196.309661771
 30
0.0
 11
380.5210332327
 21
196.309661771
 31
0.0
 70
   160
  1
\A1;<>
 71
     5
 42
-1.0
  3
UNI
100
AcDbAlignedDimension
 13
365.6018192821
 23
105.0612165582
 33
0.0
 14
351.4018192821
 24
107.1612165582
 34
0.0
100
AcDbRotatedDimension
  0
DIMENSION
  5
B5
330
1F
100
AcDbEntity
  8
Default
  6
Continuous
 62
     7
 48
25.4
100
AcDbDimension
  2
DMBLK26
 10
37.8093535912
 20
234.0612165582
 30
0.0
 11
37.8093535912
 21
168.0612169158
 31
0.0
 70
   161
  1
\A1;<>
 71
     5
 42
-1.0
  3
UNI
100
AcDbAlignedDimension
 13
78.6038192821
 23
234.0612165582
 33
0.0
 14
78.6018192821
 24
102.0612165582
 34
0.0
  0
DIMENSION
  5
C1
330
1F
100
AcDbEntity
  8
Default
  6
Continuous
 62
     7
 48
25.4
100
AcDbDimension
  2
DMBLK27
 10
58.5355594688
 20
102.0612165582
 30
0.0
 11
58.5355594688
 21
93.0239196208
 31
0.0
 70
   160
  1
\A1;<>
 71
     5
 42
-1.0
  3
UNI
100
AcDbAlignedDimension
 13
351.4018192821
 23
107.1612165582
 33
0.0
 14
78.6018192821
 24
102.0612165582
 34
0.0
 50
90.0
100
AcDbRotatedDimension
  0
DIMENSION
  5
CD
330
1F
100
AcDbEntity
  8
Default
  6
Continuous
 62
     7
 48
25.4
100
AcDbDimension
  2
DMBLK28
 10
58.5355489533
 20
187.102052571
 30
0.0
 11
58.5355489533
 21
147.1366337942
 31
0.0
 70
   160
  1
\A1;<>
 71
     5
 42
-1.0
  3
UNI
100
AcDbAlignedDimension
 13
117.0318192821
 23
107.1712165582
 33
0.0
 14
247.2216424332
 24
187.102052571
 34
0.0
 50
90.0
100
AcDbRotatedDimension
  0
DIMENSION
  5
D9
330
1F
100
AcDbEntity
  8
Default
  6
Continuous
 62
     7
 48
25.4
100
AcDbDimension
  2
DMBLK29
 10
236.1557309315
 20
234.0612165582
 30
0.0
 11
236.1557309315
 21
238.5629229282
 31
0.0
 70
   160
  1
\A1;<>
 71
     5
 42
-1.0
  3
UNI
100
AcDbAlignedDimension
 13
247.2216424332
 23
218.682052571
 33
0.0
 14
362.5998192821
 24
234.0612165582
 34
0.0
 50
90.0
100
AcDbRotatedDimension
  0
DIMENSION
  5
E4
330
1F
100
AcDbEntity
  8
Default
  6
Continuous
 62
     7
 48
25.4
100
AcDbDimension
  2
DMBLK30
 10
132.0875184832
 20
234.0612165582
 30
0.0
 11
132.0875184832
 21
240.1278582291
 31
0.0
 70
   160
  1
\A1;<>
 71
     5
 42
-1.0
  3
UNI
100
AcDbAlignedDimension
 13
122.1916424332
 23
220.702052571
 33
0.0
 14
78.6038192821
 24
234.0612165582
 34
0.0
 50
90.0
100
AcDbRotatedDimension
  0
DIMENSION
  5
EF
330
1F
100
AcDbEntity
  8
Default
  6
Continuous
 62
     7
 48
25.4
100
AcDbDimension
  2
DMBLK31
 10
62.0566524379
 20
234.0612165582
 30
0.0
 11
62.0566524379
 21
224.7312163552
 31
0.0
 70
   160
  1
\A1;<>
 71
     5
 42
-1.0
  3
UNI
100
AcDbAlignedDimension
 13
80.4518192821
 23
215.4012165582
 33
0.0
 14
78.6038192821
 24
234.0612165582
 34
0.0
 50
90.0
100
AcDbRotatedDimension
  0
DIMENSION
  5
FB
330
1F
100
AcDbEntity
  8
Default
  6
Continuous
 62
     7
 48
25.4
100
AcDbDimension
  2
DMBLK32
 10
341.006410964
 20
234.0612165582
 30
0.0
 11
341.006410964
 21
224.7262166261
 31
0.0
 70
   160
  1
\A1;<>
 71
     5
 42
-1.0
  3
UNI
100
AcDbAlignedDimension
 13
351.7918192821
 23
215.3912165582
 33
0.0
 14
362.5998192821
 24
234.0612165582
 34
0.0
 50
90.0
100
AcDbRotatedDimension
  0
DIMENSION
  5
106
330
1F
100
AcDbEntity
  8
Default
  6
Continuous
 62
     7
 48
25.4
100
AcDbDimension
  2
DMBLK33
 10
376.6086959891
 20
102.0612165582
 30
0.0
 11
376.6086959891
 21
124.7138614904
 31
0.0
 70
   160
  1
\A1;<>
 71
     5
 42
-1.0
  3
UNI
100
AcDbAlignedDimension
 13
218.6018192821
 23
89.0612165582
 33
0.0
 14
228.6018192821
 24
102.0612165582
 34
0.0
 50
90.0
100
AcDbRotatedDimension
  0
DIMENSION
  5
112
330
1F
100
AcDbEntity
  8
Default
  6
Continuous
 62
     7
 48
25.4
100
AcDbDimension
  2
DMBLK34
 10
259.6297634893
 20
102.0612165582
 30
0.0
 11
259.6297634893
 21
82.4606045809
 31
0.0
 70
   160
  1
\A1;<>
 71
     5
 42
-1.0
  3
UNI
100
AcDbAlignedDimension
 13
220.6018192821
 23
95.5612165582
 33
0.0
 14
228.6018192821
 24
102.0612165582
 34
0.0
 50
90.0
100
AcDbRotatedDimension
  0
DIMENSION
  5
11D
330
1F
100
AcDbEntity
  8
Default
  6
Continuous
 62
     7
 48
25.4
100
AcDbDimension
  2
DMBLK35
 10
257.2483498943
 20
177.5304376951
 30
0.0
 11
187.3642707941
 21
177.5304376951
 31
0.0
 70
   160
  1
\A1;<>
 71
     5
 42
-1.0
  3
UNI
100
AcDbAlignedDimension
 13
117.480186629
 23
172.3844818643
 33
0.0
 14
257.2483498943
 24
155.9787675786
 34
0.0
100
AcDbRotatedDimension
  0
DIMENSION
  5
129
330
1F
100
AcDbEntity
  8
Default
  6
Continuous
 62
     7
 48
25.4
100
AcDbDimension
  2
DMBLK36
 10
268.2369085369
 20
172.3844818643
 30
0.0
 11
268.2369085369
 21
155.9787671885
 31
0.0
 70
   161
  1
\A1;<>
 71
     5
 42
-1.0
  3
UNI
100
AcDbAlignedDimension
 13
257.2483498943
 23
172.3844818643
 33
0.0
 14
257.2483498943
 24
139.5730532929
 34
0.0
  0
DIMENSION
  5
135
330
1F
100
AcDbEntity
  8
Default
  6
Continuous
 62
     7
 48
25.4
100
AcDbDimension
  2
DMBLK37
 10
257.2483498943
 20
129.4086667549
 30
0.0
 11
311.4250863843
 21
129.4086667549
 31
0.0
 70
   160
  1
\A1;<>
 71
     5
 42
-1.0
  3
UNI
100
AcDbAlignedDimension
 13
365.6018192821
 23
221.0612165582
 33
0.0
 14
257.2483498943
 24
172.3844818643
 34
0.0
100
AcDbRotatedDimension
  0
DIMENSION
  5
140
330
1F
100
AcDbEntity
  8
Default
  6
Continuous
 62
     7
 48
25.4
100
AcDbDimension
  2
DMBLK38
 10
186.8602637542
 20
102.0612165582
 30
0.0
 11
186.8602637542
 21
120.8171349242
 31
0.0
 70
   160
  1
\A1;<>
 71
     5
 42
-1.0
  3
UNI
100
AcDbAlignedDimension
 13
257.2483498943
 23
139.5730532929
 33
0.0
 14
212.6018192821
 24
102.0612165582
 34
0.0
 50
90.0
100
AcDbRotatedDimension
  0
LINE
  5
14A
330
1F
100
AcDbEntity
  8
Default
  6
Continuous
 62
     7
 48
25.4
100
AcDbLine
 10
10.0
 20
10.0
 30
0.0
 11
410.0
 21
10.0
 31
0.0
  0
LINE
  5
14B
330
1F
100
AcDbEntity
  8
Default
  6
Continuous
 62
     7
 48
25.4
100
AcDbLine
 10
410.0
 20
10.0
 30
0.0
 11
410.0
 21
287.0
 31
0.0
  0
LINE
  5
14C
330
1F
100
AcDbEntity
  8
Default
  6
Continuous
 62
     7
 48
25.4
100
AcDbLine
 10
410.0
 20
287.0
 30
0.0
 11
10.0
 21
287.0
 31
0.0
  0
LINE
  5
14D
330
1F
100
AcDbEntity
  8
Default
  6
Continuous
 62
     7
 48
25.4
100
AcDbLine
 10
10.0
 20
287.0
 30
0.0
 11
10.0
 21
10.0
 31
0.0
  0
LINE
  5
14E
330
1F
100
AcDbEntity
  8
Default
  6
Continuous
 62
     7
 48
25.4
100
AcDbLine
 10
325.4637339982
 20
11.2380177176
 30
0.0
 11
325.4637339982
 21
10.0
 31
0.0
  0
LINE
  5
14F
330
1F
100
AcDbEntity
  8
Default
  6
Continuous
 62
     7
 48
25.4
100
AcDbLine
 10
325.4637339982
 20
40.0316070918
 30
0.0
 11
410.0
 21
40.0316070918
 31
0.0
  0
LINE
  5
150
330
1F
100
AcDbEntity
  8
Default
  6
Continuous
 62
     7
 48
25.4
100
AcDbLine
 10
325.4637339982
 20
32.4051969332
 30
0.0
 11
410.0
 21
32.4051969332
 31
0.0
  0
LINE
  5
151
330
1F
100
AcDbEntity
  8
Default
  6
Continuous
 62
     7
 48
25.4
100
AcDbLine
 10
325.4637339982
 20
32.4051969332
 30
0.0
 11
325.4637339982
 21
24.7751969332
 31
0.0
  0
LINE
  5
152
330
1F
100
AcDbEntity
  8
Default
  6
Continuous
 62
     7
 48
25.4
100
AcDbLine
 10
325.4637339982
 20
24.7751969332
 30
0.0
 11
410.0
 21
24.7751969332
 31
0.0
  0
LINE
  5
153
330
1F
100
AcDbEntity
  8
Default
  6
Continuous
 62
     7
 48
25.4
100
AcDbLine
 10
367.7318669991
 20
40.0316070918
 30
0.0
 11
367.7318669991
 21
24.7751969332
 31
0.0
  0
LINE
  5
154
330
1F
100
AcDbEntity
  8
Default
  6
Continuous
 62
     7
 48
25.4
100
AcDbLine
 10
325.4637339982
 20
40.0316070918
 30
0.0
 11
325.4637339982
 21
47.6316070918
 31
0.0
  0
LINE
  5
155
330
1F
100
AcDbEntity
  8
Default
  6
Continuous
 62
     7
 48
25.4
100
AcDbLine
 10
325.4637339982
 20
47.6316070918
 30
0.0
 11
410.0
 21
47.6316070918
 31
0.0
  0
LINE
  5
156
330
1F
100
AcDbEntity
  8
Default
  6
Continuous
 62
     7
 48
25.4
100
AcDbLine
 10
367.7318669991
 20
47.6316070918
 30
0.0
 11
367.7318669991
 21
40.0316070918
 31
0.0
  0
LINE
  5
157
330
1F
100
AcDbEntity
  8
Default
  6
Continuous
 62
     7
 48
25.4
100
AcDbLine
 10
325.4637339982
 20
10.0
 30
0.0
 11
325.4637339982
 21
65.5567349695
 31
0.0
  0
LINE
  5
158
330
1F
100
AcDbEntity
  8
Default
  6
Continuous
 62
     7
 48
25.4
100
AcDbLine
 10
325.4637339982
 20
65.5567349695
 30
0.0
 11
410.0
 21
65.5567349695
 31
0.0
  0
TEXT
  5
15A
330
1F
100
AcDbEntity
  8
Default
  6
Continuous
 62
     7
 48
25.4
100
AcDbText
 10
350.353416664
 20
56.1305048308
 30
0.0
 40
7.0
  1
CNC
  7
SEACAD_arial_ttfB
 11
350.353416664
 21
63.1305048308
 31
0.0
100
AcDbText
 73
     3
  0
TEXT
  5
15B
330
1F
100
AcDbEntity
  8
Default
  6
Continuous
 62
     7
 48
25.4
100
AcDbText
 10
371.1099731482
 20
58.3401836879
 30
0.0
 40
3.5
  1
4
  7
SEACAD_arial_ttfB
 11
371.1099731482
 21
61.8401836879
 31
0.0
100
AcDbText
 73
     3
  0
TEXT
  5
15C
330
1F
100
AcDbEntity
  8
Default
  6
Continuous
 62
     7
 48
25.4
100
AcDbText
 10
374.9659342342
 20
58.2581419627
 30
0.0
 40
3.5
  1
PC
  7
SEACAD_arial_ttfB
 11
374.9659342342
 21
61.7581419627
 31
0.0
100
AcDbText
 73
     3
  0
TEXT
  5
15D
330
1F
100
AcDbEntity
  8
Default
  6
Continuous
 62
     7
 48
25.4
100
AcDbText
 10
345.9515800357
 20
53.8711591965
 30
0.0
 40
1.5
  1
Integration Solutions for CNC Projects
  7
SEACAD_arial_ttfB
 11
345.9515800357
 21
55.3711591965
 31
0.0
100
AcDbText
 73
     3
  0
TEXT
  5
15E
330
1F
100
AcDbEntity
  8
Default
  6
Continuous
 62
     7
 48
25.4
100
AcDbText
 10
345.5949966004
 20
50.4024410758
 30
0.0
 40
2.7
  1
http://www.cnc4pc.com
  7
SEACAD_arial_ttfB
 11
345.5949966004
 21
53.1024410758
 31
0.0
100
AcDbText
 73
     3
  0
TEXT
  5
15F
330
1F
100
AcDbEntity
  8
Default
  6
Continuous
 62
     7
 48
25.4
100
AcDbText
 10
325.9536204989
 20
43.0242100897
 30
0.0
 40
2.5
  1
Designed :
  7
SEACAD_arial_ttfI
 11
325.9536204989
 21
45.5242100897
 31
0.0
100
AcDbText
 73
     3
  0
TEXT
  5
160
330
1F
100
AcDbEntity
  8
Default
  6
Continuous
 62
     7
 48
25.4
100
AcDbText
 10
367.7436605961
 20
42.8983364749
 30
0.0
 40
2.5
  1
Date :
  7
SEACAD_arial_ttfI
 11
367.7436605961
 21
45.3983364749
 31
0.0
100
AcDbText
 73
     3
  0
TEXT
  5
161
330
1F
100
AcDbEntity
  8
Default
  6
Continuous
 62
     7
 48
25.4
100
AcDbText
 10
325.5759996546
 20
34.9682987456
 30
0.0
 40
2.5
  1
Revised :
  7
SEACAD_arial_ttfI
 11
325.5759996546
 21
37.4682987456
 31
0.0
100
AcDbText
 73
     3
  0
TEXT
  5
162
330
1F
100
AcDbEntity
  8
Default
  6
Continuous
 62
     7
 48
25.4
100
AcDbText
 10
367.7436605961
 20
34.8424251309
 30
0.0
 40
2.5
  1
Date :
  7
SEACAD_arial_ttfI
 11
367.7436605961
 21
37.3424251309
 31
0.0
100
AcDbText
 73
     3
  0
TEXT
  5
163
330
1F
100
AcDbEntity
  8
Default
  6
Continuous
 62
     7
 48
25.4
100
AcDbText
 10
325.5759996546
 20
27.5417554753
 30
0.0
 40
2.5
  1
Item :
  7
SEACAD_arial_ttfI
 11
325.5759996546
 21
30.0417554753
 31
0.0
100
AcDbText
 73
     3
  0
TEXT
  5
164
330
1F
100
AcDbEntity
  8
Default
  6
Continuous
 62
     7
 48
25.4
100
AcDbText
 10
367.7436605961
 20
27.5417554753
 30
0.0
 40
2.5
  1
Ver. :
  7
SEACAD_arial_ttfI
 11
367.7436605961
 21
30.0417554753
 31
0.0
100
AcDbText
 73
     3
  0
TEXT
  5
165
330
1F
100
AcDbEntity
  8
Default
  6
Continuous
 62
     7
 48
25.4
100
AcDbText
 10
325.9536204989
 20
20.9963275083
 30
0.0
 40
2.5
  1
Description :
  7
SEACAD_arial_ttfI
 11
325.9536204989
 21
23.4963275083
 31
0.0
100
AcDbText
 73
     3
  0
ENDSEC
  0
SECTION
  2
OBJECTS
  0
DICTIONARY
  5
C
330
0
100
AcDbDictionary
281
     1
  3
ACAD_GROUP
350
D
  3
ACAD_LAYOUT
350
1A
  3
ACAD_MLINESTYLE
350
17
  3
ACAD_PLOTSETTINGS
350
19
  3
ACAD_PLOTSTYLENAME
350
E
  0
DICTIONARY
  5
D
102
{ACAD_REACTORS
330
C
102
}
330
C
100
AcDbDictionary
281
     1
  0
DICTIONARY
  5
1A
102
{ACAD_REACTORS
330
C
102
}
330
C
100
AcDbDictionary
281
     1
  3
Layout1
350
1E
  3
Model
350
22
  0
DICTIONARY
  5
17
102
{ACAD_REACTORS
330
C
102
}
330
C
100
AcDbDictionary
281
     1
  3
Standard
350
18
  0
DICTIONARY
  5
19
102
{ACAD_REACTORS
330
C
102
}
330
C
100
AcDbDictionary
281
     1
  0
ACDBDICTIONARYWDFLT
  5
E
102
{ACAD_REACTORS
330
C
102
}
330
C
100
AcDbDictionary
281
     1
  3
Normal
350
F
100
AcDbDictionaryWithDefault
340
F
  0
LAYOUT
  5
1E
102
{ACAD_REACTORS
330
1A
102
}
330
1A
100
AcDbPlotSettings
  1

  2

  4

  6

 40
0.0
 41
0.0
 42
0.0
 43
0.0
 44
0.0
 45
0.0
 46
0.0
 47
0.0
 48
0.0
 49
0.0
140
0.0
141
0.0
142
1.0
143
1.0
 70
   688
 72
     0
 73
     0
 74
     5
  7

 75
    16
147
1.0
148
0.0
149
0.0
100
AcDbLayout
  1
Layout1
 70
     1
 71
     1
 10
0.0
 20
0.0
 11
420.0
 21
297.0
 12
0.0
 22
0.0
 32
0.0
 14
0.0
 24
0.0
 34
0.0
 15
420.0
 25
297.0
 35
0.0
146
0.0
 13
0.0
 23
0.0
 33
0.0
 16
1.0
 26
0.0
 36
0.0
 17
0.0
 27
1.0
 37
0.0
 76
     0
330
1B
  0
LAYOUT
  5
22
102
{ACAD_REACTORS
330
1A
102
}
330
1A
100
AcDbPlotSettings
  1

  2

  4

  6

 40
0.0
 41
0.0
 42
0.0
 43
0.0
 44
0.0
 45
0.0
 46
0.0
 47
0.0
 48
0.0
 49
0.0
140
0.0
141
0.0
142
1.0
143
1.0
 70
  1712
 72
     0
 73
     0
 74
     0
  7

 75
     0
147
1.0
148
0.0
149
0.0
100
AcDbLayout
  1
Model
 70
     1
 71
     0
 10
0.0
 20
0.0
 11
420.0
 21
297.0
 12
0.0
 22
0.0
 32
0.0
 14
0.0
 24
0.0
 34
0.0
 15
420.0
 25
297.0
 35
0.0
146
0.0
 13
0.0
 23
0.0
 33
0.0
 16
1.0
 26
0.0
 36
0.0
 17
0.0
 27
1.0
 37
0.0
 76
     0
330
1F
  0
MLINESTYLE
  5
18
102
{ACAD_REACTORS
330
17
102
}
330
17
100
AcDbMlineStyle
  2
Standard
 70
     0
  3

 62
   256
 51
90.0
 52
90.0
 71
     2
 49
0.5
 62
   256
  6
BYLAYER
 49
-0.5
 62
   256
  6
BYLAYER
  0
ACDBPLACEHOLDER
  5
F
102
{ACAD_REACTORS
330
E
102
}
330
E
  0
ENDSEC
  0
EOF
