  0
SECTION
  2
HEADER
  9
$ACADVER
  1
AC1015
  9
$ACADMAINTVER
 70
     6
  9
$DWGCODEPAGE
  3
ANSI_1252
  9
$INSBASE
 10
0.0
 20
0.0
 30
0.0
  9
$EXTMIN
 10
0.0
 20
0.0
 30
0.0
  9
$EXTMAX
 10
420.0
 20
297.0
 30
0.0
  9
$LIMMIN
 10
0.0
 20
0.0
  9
$LIMMAX
 10
420.0
 20
297.0
  9
$ORTHOMODE
 70
     0
  9
$REGENMODE
 70
     1
  9
$FILLMODE
 70
     1
  9
$QTEXTMODE
 70
     0
  9
$MIRRTEXT
 70
     1
  9
$LTSCALE
 40
1.0
  9
$ATTMODE
 70
     1
  9
$TEXTSIZE
 40
0.2
  9
$TRACEWID
 40
0.05
  9
$TEXTSTYLE
  7
Standard
  9
$CLAYER
  8
0
  9
$CELTYPE
  6
ByLayer
  9
$CECOLOR
 62
   256
  9
$CELTSCALE
 40
25.4
  9
$DISPSILH
 70
     0
  9
$DIMSCALE
 40
1.0
  9
$DIMASZ
 40
0.18
  9
$DIMEXO
 40
0.0625
  9
$DIMDLI
 40
0.38
  9
$DIMRND
 40
0.0
  9
$DIMDLE
 40
0.0
  9
$DIMEXE
 40
0.18
  9
$DIMTP
 40
0.0
  9
$DIMTM
 40
0.0
  9
$DIMTXT
 40
0.18
  9
$DIMCEN
 40
0.09
  9
$DIMTSZ
 40
0.0
  9
$DIMTOL
 70
     0
  9
$DIMLIM
 70
     0
  9
$DIMTIH
 70
     1
  9
$DIMTOH
 70
     1
  9
$DIMSE1
 70
     0
  9
$DIMSE2
 70
     0
  9
$DIMTAD
 70
     0
  9
$DIMZIN
 70
     0
  9
$DIMBLK
  1

  9
$DIMASO
 70
     1
  9
$DIMSHO
 70
     1
  9
$DIMPOST
  1

  9
$DIMAPOST
  1

  9
$DIMALT
 70
     0
  9
$DIMALTD
 70
     2
  9
$DIMALTF
 40
25.4
  9
$DIMLFAC
 40
1.0
  9
$DIMTOFL
 70
     0
  9
$DIMTVP
 40
0.0
  9
$DIMTIX
 70
     0
  9
$DIMSOXD
 70
     0
  9
$DIMSAH
 70
     0
  9
$DIMBLK1
  1

  9
$DIMBLK2
  1

  9
$DIMSTYLE
  2
Standard
  9
$DIMCLRD
 70
     0
  9
$DIMCLRE
 70
     0
  9
$DIMCLRT
 70
     0
  9
$DIMTFAC
 40
1.0
  9
$DIMGAP
 40
0.09
  9
$DIMJUST
 70
     0
  9
$DIMSD1
 70
     0
  9
$DIMSD2
 70
     0
  9
$DIMTOLJ
 70
     1
  9
$DIMTZIN
 70
     0
  9
$DIMALTZ
 70
     0
  9
$DIMALTTZ
 70
     0
  9
$DIMUPT
 70
     0
  9
$DIMDEC
 70
     4
  9
$DIMTDEC
 70
     4
  9
$DIMALTU
 70
     2
  9
$DIMALTTD
 70
     2
  9
$DIMTXSTY
  7
Standard
  9
$DIMAUNIT
 70
     0
  9
$DIMADEC
 70
     0
  9
$DIMALTRND
 40
0.0
  9
$DIMAZIN
 70
     0
  9
$DIMDSEP
 70
    46
  9
$DIMATFIT
 70
     3
  9
$DIMFRAC
 70
     0
  9
$DIMLDRBLK
  1

  9
$DIMLUNIT
 70
     2
  9
$DIMLWD
 70
    -2
  9
$DIMLWE
 70
    -2
  9
$DIMTMOVE
 70
     0
  9
$LUNITS
 70
     2
  9
$LUPREC
 70
     4
  9
$SKETCHINC
 40
0.1
  9
$FILLETRAD
 40
0.5
  9
$AUNITS
 70
     0
  9
$AUPREC
 70
     0
  9
$MENU
  1
.
  9
$ELEVATION
 40
0.0
  9
$PELEVATION
 40
0.0
  9
$THICKNESS
 40
0.0
  9
$LIMCHECK
 70
     0
  9
$CHAMFERA
 40
0.5
  9
$CHAMFERB
 40
0.5
  9
$CHAMFERC
 40
1.0
  9
$CHAMFERD
 40
0.0
  9
$SKPOLY
 70
     0
  9
$TDCREATE
 40
2456974.477158125
  9
$TDUCREATE
 40
2456974.685491459
  9
$TDUPDATE
 40
2456974.477158137
  9
$TDUUPDATE
 40
2456974.68549147
  9
$TDINDWG
 40
0.0000000116
  9
$TDUSRTIMER
 40
0.0000000116
  9
$USRTIMER
 70
     1
  9
$ANGBASE
 50
0.0
  9
$ANGDIR
 70
     0
  9
$PDMODE
 70
     0
  9
$PDSIZE
 40
0.0
  9
$PLINEWID
 40
0.0
  9
$SPLFRAME
 70
     0
  9
$SPLINETYPE
 70
     6
  9
$SPLINESEGS
 70
     8
  9
$HANDSEED
  5
196
  9
$SURFTAB1
 70
     6
  9
$SURFTAB2
 70
     6
  9
$SURFTYPE
 70
     6
  9
$SURFU
 70
     6
  9
$SURFV
 70
     6
  9
$UCSBASE
  2

  9
$UCSNAME
  2

  9
$UCSORG
 10
0.0
 20
0.0
 30
0.0
  9
$UCSXDIR
 10
1.0
 20
0.0
 30
0.0
  9
$UCSYDIR
 10
0.0
 20
1.0
 30
0.0
  9
$UCSORTHOREF
  2

  9
$UCSORTHOVIEW
 70
     0
  9
$UCSORGTOP
 10
0.0
 20
0.0
 30
0.0
  9
$UCSORGBOTTOM
 10
0.0
 20
0.0
 30
0.0
  9
$UCSORGLEFT
 10
0.0
 20
0.0
 30
0.0
  9
$UCSORGRIGHT
 10
0.0
 20
0.0
 30
0.0
  9
$UCSORGFRONT
 10
0.0
 20
0.0
 30
0.0
  9
$UCSORGBACK
 10
0.0
 20
0.0
 30
0.0
  9
$PUCSBASE
  2

  9
$PUCSNAME
  2

  9
$PUCSORG
 10
0.0
 20
0.0
 30
0.0
  9
$PUCSXDIR
 10
1.0
 20
0.0
 30
0.0
  9
$PUCSYDIR
 10
0.0
 20
1.0
 30
0.0
  9
$PUCSORTHOREF
  2

  9
$PUCSORTHOVIEW
 70
     0
  9
$PUCSORGTOP
 10
0.0
 20
0.0
 30
0.0
  9
$PUCSORGBOTTOM
 10
0.0
 20
0.0
 30
0.0
  9
$PUCSORGLEFT
 10
0.0
 20
0.0
 30
0.0
  9
$PUCSORGRIGHT
 10
0.0
 20
0.0
 30
0.0
  9
$PUCSORGFRONT
 10
0.0
 20
0.0
 30
0.0
  9
$PUCSORGBACK
 10
0.0
 20
0.0
 30
0.0
  9
$USERI1
 70
     0
  9
$USERI2
 70
     0
  9
$USERI3
 70
     0
  9
$USERI4
 70
     0
  9
$USERI5
 70
     0
  9
$USERR1
 40
0.0
  9
$USERR2
 40
0.0
  9
$USERR3
 40
0.0
  9
$USERR4
 40
0.0
  9
$USERR5
 40
0.0
  9
$WORLDVIEW
 70
     1
  9
$SHADEDGE
 70
     3
  9
$SHADEDIF
 70
    70
  9
$TILEMODE
 70
     1
  9
$MAXACTVP
 70
    64
  9
$PINSBASE
 10
0.0
 20
0.0
 30
0.0
  9
$PLIMCHECK
 70
     0
  9
$PEXTMIN
 10
0.0
 20
0.0
 30
0.0
  9
$PEXTMAX
 10
420.0
 20
297.0
 30
0.0
  9
$PLIMMIN
 10
0.0
 20
0.0
  9
$PLIMMAX
 10
420.0
 20
297.0
  9
$UNITMODE
 70
     0
  9
$VISRETAIN
 70
     1
  9
$PLINEGEN
 70
     0
  9
$PSLTSCALE
 70
     1
  9
$TREEDEPTH
 70
  3020
  9
$CMLSTYLE
  2
Standard
  9
$CMLJUST
 70
     0
  9
$CMLSCALE
 40
1.0
  9
$PROXYGRAPHICS
 70
     1
  9
$MEASUREMENT
 70
     1
  9
$CELWEIGHT
370
    -1
  9
$ENDCAPS
280
     0
  9
$JOINSTYLE
280
     0
  9
$LWDISPLAY
290
     0
  9
$INSUNITS
 70
     1
  9
$HYPERLINKBASE
  1

  9
$STYLESHEET
  1

  9
$XEDIT
290
     1
  9
$CEPSNTYPE
380
     0
  9
$PSTYLEMODE
290
     1
  9
$FINGERPRINTGUID
  2
{31266A43-EC91-4C27-901F-ED53B62775F5}
  9
$VERSIONGUID
  2
{FAEB1C32-E019-11D5-929B-00C0DF256EC4}
  9
$EXTNAMES
290
     1
  9
$PSVPSCALE
 40
0.0
  9
$OLESTARTUP
290
     0
  0
ENDSEC
  0
SECTION
  2
CLASSES
  0
CLASS
  1
ACDBDICTIONARYWDFLT
  2
AcDbDictionaryWithDefault
  3
ObjectDBX Classes
 90
        0
280
     0
281
     0
  0
CLASS
  1
ACDBPLACEHOLDER
  2
AcDbPlaceHolder
  3
ObjectDBX Classes
 90
        0
280
     0
281
     0
  0
CLASS
  1
LAYOUT
  2
AcDbLayout
  3
ObjectDBX Classes
 90
        0
280
     0
281
     0
  0
ENDSEC
  0
SECTION
  2
TABLES
  0
TABLE
  2
VPORT
  5
8
330
0
100
AcDbSymbolTable
 70
     1
  0
VPORT
  5
29
330
8
100
AcDbSymbolTableRecord
100
AcDbViewportTableRecord
  2
*Active
 70
     0
 10
0.0
 20
0.0
 11
1.0
 21
1.0
 12
10.4299065421
 22
4.5
 13
0.0
 23
0.0
 14
0.5
 24
0.5
 15
0.5
 25
0.5
 16
0.0
 26
0.0
 36
1.0
 17
0.0
 27
0.0
 37
0.0
 40
9.0
 41
1.9729729729
 42
50.0
 43
0.0
 44
0.0
 50
0.0
 51
0.0
 71
     0
 72
   100
 73
     1
 74
     3
 75
     0
 76
     0
 77
     0
 78
     0
281
     0
 65
     1
110
0.0
120
0.0
130
0.0
111
1.0
121
0.0
131
0.0
112
0.0
122
1.0
132
0.0
 79
     0
146
0.0
  0
ENDTAB
  0
TABLE
  2
LTYPE
  5
5
330
0
100
AcDbSymbolTable
 70
     2
  0
LTYPE
  5
14
330
5
100
AcDbSymbolTableRecord
100
AcDbLinetypeTableRecord
  2
ByBlock
 70
     0
  3

 72
    65
 73
     0
 40
0.0
  0
LTYPE
  5
15
330
5
100
AcDbSymbolTableRecord
100
AcDbLinetypeTableRecord
  2
ByLayer
 70
     0
  3

 72
    65
 73
     0
 40
0.0
  0
LTYPE
  5
16
330
5
100
AcDbSymbolTableRecord
100
AcDbLinetypeTableRecord
  2
Continuous
 70
     0
  3
Solid line
 72
    65
 73
     0
 40
0.0
  0
LTYPE
  5
43
330
5
100
AcDbSymbolTableRecord
100
AcDbLinetypeTableRecord
  2
HIDDEN2
 70
     0
  3
_ _ _ _ _ _ _ _ _ _ _ _ _ _ _ _ _ _ _ _ _ _ _ _
 72
    65
 73
     2
 40
0.1875
 49
0.125
 74
     4
 75
     0
340
0
 46
0.0
 50
0.0
 44
0.0
 45
0.0
 49
-0.0625
 74
     4
 75
     0
340
0
 46
0.0
 50
0.0
 44
0.0
 45
0.0
  0
ENDTAB
  0
TABLE
  2
LAYER
  5
2
330
0
100
AcDbSymbolTable
 70
     3
  0
LAYER
  5
10
330
2
100
AcDbSymbolTableRecord
100
AcDbLayerTableRecord
  2
0
 70
     0
 62
     7
  6
Continuous
370
    -3
390
F
  0
LAYER
  5
2C
330
2
100
AcDbSymbolTableRecord
100
AcDbLayerTableRecord
  2
Default
 70
     0
 62
     7
  6
Continuous
370
    -3
390
F
  0
LAYER
  5
2F
330
2
100
AcDbSymbolTableRecord
100
AcDbLayerTableRecord
  2
819-S
 70
     0
 62
     7
  6
Continuous
370
    -3
390
F
  0
ENDTAB
  0
TABLE
  2
STYLE
  5
3
330
0
100
AcDbSymbolTable
 70
     5
  0
STYLE
  5
11
330
3
100
AcDbSymbolTableRecord
100
AcDbTextStyleTableRecord
  2
Standard
 70
     0
 40
0.0
 41
1.0
 50
0.0
 71
     0
 42
0.2
  3
txt
  4

  0
STYLE
  5
2A
330
3
100
AcDbSymbolTableRecord
100
AcDbTextStyleTableRecord
  2
SEACAD_arial_ttfI
 70
     0
 40
0.2
 41
1.0
 50
0.0
 71
     0
 42
0.2
  3
arial.ttf
  4

  0
STYLE
  5
6A
330
3
100
AcDbSymbolTableRecord
100
AcDbTextStyleTableRecord
  2
SEACAD_seans_ttf
 70
     0
 40
4.5
 41
1.0
 50
0.0
 71
     0
 42
0.2
  3
seans.ttf
  4

  0
STYLE
  5
170
330
3
100
AcDbSymbolTableRecord
100
AcDbTextStyleTableRecord
  2
SEACAD_semeca1_ttf
 70
     0
 40
0.2
 41
1.0
 50
0.0
 71
     0
 42
0.2
  3
semeca1.ttf
  4

  0
STYLE
  5
189
330
3
100
AcDbSymbolTableRecord
100
AcDbTextStyleTableRecord
  2
SEACAD_arial_ttfB
 70
     0
 40
0.2
 41
1.0
 50
0.0
 71
     0
 42
0.2
  3
arial.ttf
  4

  0
ENDTAB
  0
TABLE
  2
VIEW
  5
6
330
0
100
AcDbSymbolTable
 70
     0
  0
ENDTAB
  0
TABLE
  2
UCS
  5
7
330
0
100
AcDbSymbolTable
 70
     0
  0
ENDTAB
  0
TABLE
  2
APPID
  5
9
330
0
100
AcDbSymbolTable
 70
     1
  0
APPID
  5
12
330
9
100
AcDbSymbolTableRecord
100
AcDbRegAppTableRecord
  2
ACAD
 70
     0
  0
ENDTAB
  0
TABLE
  2
DIMSTYLE
  5
A
330
0
100
AcDbSymbolTable
 70
     2
100
AcDbDimStyleTable
  0
DIMSTYLE
105
27
330
A
100
AcDbSymbolTableRecord
100
AcDbDimStyleTableRecord
  2
Standard
 70
     0
340
11
  0
DIMSTYLE
105
16E
102
{ACAD_REACTORS
330
16F
102
}
330
A
100
AcDbSymbolTableRecord
100
AcDbDimStyleTableRecord
  2
ANSImm
 70
     0
 41
4.5
 42
2.25
 44
2.25
 78
     8
140
4.5
141
2.25
147
2.25
173
     1
176
     7
177
     7
178
     7
271
     2
272
     2
284
     8
340
6A
343
169
344
169
  0
ENDTAB
  0
TABLE
  2
BLOCK_RECORD
  5
1
330
0
100
AcDbSymbolTable
 70
    47
  0
BLOCK_RECORD
  5
1F
330
1
100
AcDbSymbolTableRecord
100
AcDbBlockTableRecord
  2
*Model_Space
340
22
  0
BLOCK_RECORD
  5
1B
330
1
100
AcDbSymbolTableRecord
100
AcDbBlockTableRecord
  2
*Paper_Space
340
1E
  0
BLOCK_RECORD
  5
2D
330
1
100
AcDbSymbolTableRecord
100
AcDbBlockTableRecord
  2
SE
340
0
102
{BLKREFS
331
2E
102
}
  0
BLOCK_RECORD
  5
66
330
1
100
AcDbSymbolTableRecord
100
AcDbBlockTableRecord
  2
GDimGGroup
340
0
102
{BLKREFS
331
67
102
}
  0
BLOCK_RECORD
  5
6E
330
1
100
AcDbSymbolTableRecord
100
AcDbBlockTableRecord
  2
GDimGGroup1
340
0
102
{BLKREFS
331
6F
102
}
  0
BLOCK_RECORD
  5
74
330
1
100
AcDbSymbolTableRecord
100
AcDbBlockTableRecord
  2
GDimGGroup2
340
0
102
{BLKREFS
331
75
102
}
  0
BLOCK_RECORD
  5
7A
330
1
100
AcDbSymbolTableRecord
100
AcDbBlockTableRecord
  2
GDimGGroup3
340
0
102
{BLKREFS
331
7B
102
}
  0
BLOCK_RECORD
  5
80
330
1
100
AcDbSymbolTableRecord
100
AcDbBlockTableRecord
  2
GDimGGroup4
340
0
102
{BLKREFS
331
81
102
}
  0
BLOCK_RECORD
  5
86
330
1
100
AcDbSymbolTableRecord
100
AcDbBlockTableRecord
  2
GDimGGroup5
340
0
102
{BLKREFS
331
87
102
}
  0
BLOCK_RECORD
  5
8C
330
1
100
AcDbSymbolTableRecord
100
AcDbBlockTableRecord
  2
GDimGGroup6
340
0
102
{BLKREFS
331
8D
102
}
  0
BLOCK_RECORD
  5
92
330
1
100
AcDbSymbolTableRecord
100
AcDbBlockTableRecord
  2
GDimGGroup7
340
0
102
{BLKREFS
331
93
102
}
  0
BLOCK_RECORD
  5
98
330
1
100
AcDbSymbolTableRecord
100
AcDbBlockTableRecord
  2
GDimGGroup8
340
0
102
{BLKREFS
331
99
102
}
  0
BLOCK_RECORD
  5
9E
330
1
100
AcDbSymbolTableRecord
100
AcDbBlockTableRecord
  2
GDimGGroup9
340
0
102
{BLKREFS
331
9F
102
}
  0
BLOCK_RECORD
  5
A4
330
1
100
AcDbSymbolTableRecord
100
AcDbBlockTableRecord
  2
GDimGGroup10
340
0
102
{BLKREFS
331
A5
102
}
  0
BLOCK_RECORD
  5
AA
330
1
100
AcDbSymbolTableRecord
100
AcDbBlockTableRecord
  2
GDimGGroup11
340
0
102
{BLKREFS
331
AB
102
}
  0
BLOCK_RECORD
  5
B0
330
1
100
AcDbSymbolTableRecord
100
AcDbBlockTableRecord
  2
GDimGGroup12
340
0
102
{BLKREFS
331
B1
102
}
  0
BLOCK_RECORD
  5
B6
330
1
100
AcDbSymbolTableRecord
100
AcDbBlockTableRecord
  2
GDimGGroup13
340
0
102
{BLKREFS
331
B7
102
}
  0
BLOCK_RECORD
  5
BC
330
1
100
AcDbSymbolTableRecord
100
AcDbBlockTableRecord
  2
GDimGGroup14
340
0
102
{BLKREFS
331
BD
102
}
  0
BLOCK_RECORD
  5
C2
330
1
100
AcDbSymbolTableRecord
100
AcDbBlockTableRecord
  2
GDimGGroup15
340
0
102
{BLKREFS
331
C3
102
}
  0
BLOCK_RECORD
  5
C8
330
1
100
AcDbSymbolTableRecord
100
AcDbBlockTableRecord
  2
GDimGGroup16
340
0
102
{BLKREFS
331
C9
102
}
  0
BLOCK_RECORD
  5
CE
330
1
100
AcDbSymbolTableRecord
100
AcDbBlockTableRecord
  2
GDimGGroup17
340
0
102
{BLKREFS
331
CF
102
}
  0
BLOCK_RECORD
  5
D4
330
1
100
AcDbSymbolTableRecord
100
AcDbBlockTableRecord
  2
GDimGGroup18
340
0
102
{BLKREFS
331
D5
102
}
  0
BLOCK_RECORD
  5
DA
330
1
100
AcDbSymbolTableRecord
100
AcDbBlockTableRecord
  2
GDimGGroup19
340
0
102
{BLKREFS
331
DB
102
}
  0
BLOCK_RECORD
  5
E0
330
1
100
AcDbSymbolTableRecord
100
AcDbBlockTableRecord
  2
GDimGGroup20
340
0
102
{BLKREFS
331
E1
102
}
  0
BLOCK_RECORD
  5
E6
330
1
100
AcDbSymbolTableRecord
100
AcDbBlockTableRecord
  2
GDimGGroup21
340
0
102
{BLKREFS
331
E7
102
}
  0
BLOCK_RECORD
  5
ED
330
1
100
AcDbSymbolTableRecord
100
AcDbBlockTableRecord
  2
GDimGGroup22
340
0
102
{BLKREFS
331
EE
102
}
  0
BLOCK_RECORD
  5
F3
330
1
100
AcDbSymbolTableRecord
100
AcDbBlockTableRecord
  2
GDimGGroup23
340
0
102
{BLKREFS
331
F4
102
}
  0
BLOCK_RECORD
  5
F9
330
1
100
AcDbSymbolTableRecord
100
AcDbBlockTableRecord
  2
GDimGGroup24
340
0
102
{BLKREFS
331
FA
102
}
  0
BLOCK_RECORD
  5
FF
330
1
100
AcDbSymbolTableRecord
100
AcDbBlockTableRecord
  2
GDimGGroup25
340
0
102
{BLKREFS
331
100
102
}
  0
BLOCK_RECORD
  5
105
330
1
100
AcDbSymbolTableRecord
100
AcDbBlockTableRecord
  2
GDimGGroup26
340
0
102
{BLKREFS
331
106
102
}
  0
BLOCK_RECORD
  5
10B
330
1
100
AcDbSymbolTableRecord
100
AcDbBlockTableRecord
  2
GDimGGroup27
340
0
102
{BLKREFS
331
10C
102
}
  0
BLOCK_RECORD
  5
110
330
1
100
AcDbSymbolTableRecord
100
AcDbBlockTableRecord
  2
GDimGGroup28
340
0
102
{BLKREFS
331
111
102
}
  0
BLOCK_RECORD
  5
116
330
1
100
AcDbSymbolTableRecord
100
AcDbBlockTableRecord
  2
GDimGGroup29
340
0
102
{BLKREFS
331
117
102
}
  0
BLOCK_RECORD
  5
11B
330
1
100
AcDbSymbolTableRecord
100
AcDbBlockTableRecord
  2
GDimGGroup30
340
0
102
{BLKREFS
331
11C
102
}
  0
BLOCK_RECORD
  5
121
330
1
100
AcDbSymbolTableRecord
100
AcDbBlockTableRecord
  2
GDimGGroup31
340
0
102
{BLKREFS
331
122
102
}
  0
BLOCK_RECORD
  5
127
330
1
100
AcDbSymbolTableRecord
100
AcDbBlockTableRecord
  2
GDimGGroup32
340
0
102
{BLKREFS
331
128
102
}
  0
BLOCK_RECORD
  5
12D
330
1
100
AcDbSymbolTableRecord
100
AcDbBlockTableRecord
  2
GDimGGroup33
340
0
102
{BLKREFS
331
12E
102
}
  0
BLOCK_RECORD
  5
133
330
1
100
AcDbSymbolTableRecord
100
AcDbBlockTableRecord
  2
GDimGGroup34
340
0
102
{BLKREFS
331
134
102
}
  0
BLOCK_RECORD
  5
139
330
1
100
AcDbSymbolTableRecord
100
AcDbBlockTableRecord
  2
GDimGGroup35
340
0
102
{BLKREFS
331
13A
102
}
  0
BLOCK_RECORD
  5
13F
330
1
100
AcDbSymbolTableRecord
100
AcDbBlockTableRecord
  2
GDimGGroup36
340
0
102
{BLKREFS
331
140
102
}
  0
BLOCK_RECORD
  5
145
330
1
100
AcDbSymbolTableRecord
100
AcDbBlockTableRecord
  2
GDimGGroup37
340
0
102
{BLKREFS
331
146
102
}
  0
BLOCK_RECORD
  5
14B
330
1
100
AcDbSymbolTableRecord
100
AcDbBlockTableRecord
  2
GDimGGroup38
340
0
102
{BLKREFS
331
14C
102
}
  0
BLOCK_RECORD
  5
151
330
1
100
AcDbSymbolTableRecord
100
AcDbBlockTableRecord
  2
GDimGGroup39
340
0
102
{BLKREFS
331
152
102
}
  0
BLOCK_RECORD
  5
157
330
1
100
AcDbSymbolTableRecord
100
AcDbBlockTableRecord
  2
GDimGGroup40
340
0
102
{BLKREFS
331
158
102
}
  0
BLOCK_RECORD
  5
15D
330
1
100
AcDbSymbolTableRecord
100
AcDbBlockTableRecord
  2
GDimGGroup41
340
0
102
{BLKREFS
331
15E
102
}
  0
BLOCK_RECORD
  5
163
330
1
100
AcDbSymbolTableRecord
100
AcDbBlockTableRecord
  2
GDimGGroup42
340
0
102
{BLKREFS
331
164
102
}
  0
BLOCK_RECORD
  5
169
330
1
100
AcDbSymbolTableRecord
100
AcDbBlockTableRecord
  2
_SE_FILLED
340
0
  0
BLOCK_RECORD
  5
171
330
1
100
AcDbSymbolTableRecord
100
AcDbBlockTableRecord
  2
DMBLK39
340
0
  0
ENDTAB
  0
ENDSEC
  0
SECTION
  2
BLOCKS
  0
BLOCK
  5
20
330
1F
100
AcDbEntity
  8
0
100
AcDbBlockBegin
  2
*Model_Space
 70
     0
 71
     0
 10
0.0
 20
0.0
 30
0.0
  3
*Model_Space
  1

  0
ENDBLK
  5
21
330
1F
100
AcDbEntity
  8
0
100
AcDbBlockEnd
  0
BLOCK
  5
1C
330
1B
100
AcDbEntity
 67
     1
  8
0
100
AcDbBlockBegin
  2
*Paper_Space
 70
     0
 71
     0
 10
0.0
 20
0.0
 30
0.0
  3
*Paper_Space
  1

  0
ENDBLK
  5
1D
330
1B
100
AcDbEntity
 67
     1
  8
0
100
AcDbBlockEnd
  0
BLOCK
  5
64
330
2D
100
AcDbEntity
  8
0
100
AcDbBlockBegin
  2
SE
 70
     0
 71
     0
 10
0.0
 20
0.0
 30
0.0
  3
SE
  1

  0
LINE
  5
30
330
2D
100
AcDbEntity
  8
819-S
  6
Continuous
 62
     7
 48
25.4
100
AcDbLine
 10
215.1399846403
 20
114.8708894183
 30
0.0
 11
314.1399846403
 21
114.8708894183
 31
0.0
  0
ARC
  5
31
330
2D
100
AcDbEntity
  8
819-S
  6
Continuous
 62
     7
 48
25.4
100
AcDbCircle
 10
215.1399846403
 20
111.8708894183
 30
0.0
 40
2.999999999999998
100
AcDbArc
 50
90.0
 51
180.0
  0
LINE
  5
32
330
2D
100
AcDbEntity
  8
819-S
  6
Continuous
 62
     7
 48
25.4
100
AcDbLine
 10
212.1399846403
 20
104.8708894183
 30
0.0
 11
212.1399846403
 21
111.8708894183
 31
0.0
  0
ARC
  5
33
330
2D
100
AcDbEntity
  8
819-S
  6
Continuous
 62
     7
 48
25.4
100
AcDbCircle
 10
209.1399846403
 20
104.8708894183
 30
0.0
 40
3.000000000000003
100
AcDbArc
 50
270.0
 51
360.0
  0
LINE
  5
34
330
2D
100
AcDbEntity
  8
819-S
  6
Continuous
 62
     7
 48
25.4
100
AcDbLine
 10
205.1399846403
 20
101.8708894183
 30
0.0
 11
209.1399846403
 21
101.8708894183
 31
0.0
  0
ARC
  5
35
330
2D
100
AcDbEntity
  8
819-S
  6
Continuous
 62
     7
 48
25.4
100
AcDbCircle
 10
205.1399846403
 20
104.8708894183
 30
0.0
 40
3.000000000000003
100
AcDbArc
 50
180.0
 51
270.0
  0
LINE
  5
36
330
2D
100
AcDbEntity
  8
819-S
  6
Continuous
 62
     7
 48
25.4
100
AcDbLine
 10
202.1399846403
 20
111.8708894183
 30
0.0
 11
202.1399846403
 21
104.8708894183
 31
0.0
  0
ARC
  5
37
330
2D
100
AcDbEntity
  8
819-S
  6
Continuous
 62
     7
 48
25.4
100
AcDbCircle
 10
199.1399846403
 20
111.8708894183
 30
0.0
 40
3.000000000000003
100
AcDbArc
 50
0.0
 51
90.0
  0
LINE
  5
38
330
2D
100
AcDbEntity
  8
819-S
  6
Continuous
 62
     7
 48
25.4
100
AcDbLine
 10
100.1399846403
 20
114.8708894183
 30
0.0
 11
199.1399846403
 21
114.8708894183
 31
0.0
  0
ARC
  5
39
330
2D
100
AcDbEntity
  8
819-S
  6
Continuous
 62
     7
 48
25.4
100
AcDbCircle
 10
100.1399846403
 20
117.8708894183
 30
0.0
 40
3.000000000000003
100
AcDbArc
 50
180.0
 51
270.0
  0
LINE
  5
3A
330
2D
100
AcDbEntity
  8
819-S
  6
Continuous
 62
     7
 48
25.4
100
AcDbLine
 10
317.1399846403
 20
117.8708894183
 30
0.0
 11
317.1399846403
 21
228.1167910577
 31
0.0
  0
ARC
  5
3B
330
2D
100
AcDbEntity
  8
819-S
  6
Continuous
 62
     7
 48
25.4
100
AcDbCircle
 10
314.1399846403
 20
117.8708894183
 30
0.0
 40
3.000000000000003
100
AcDbArc
 50
270.0
 51
360.0
  0
LINE
  5
3C
330
2D
100
AcDbEntity
  8
819-S
  6
Continuous
 62
     7
 48
25.4
100
AcDbLine
 10
97.1399846403
 20
228.1167910577
 30
0.0
 11
97.1399846403
 21
117.8708894183
 31
0.0
  0
LINE
  5
3D
330
2D
100
AcDbEntity
  8
819-S
  6
Continuous
 62
     7
 48
25.4
100
AcDbLine
 10
103.1419846403
 20
228.1167910577
 30
0.0
 11
97.1399846403
 21
228.1167910577
 31
0.0
  0
ARC
  5
3E
330
2D
100
AcDbEntity
  8
819-S
  6
Continuous
 62
     7
 48
25.4
100
AcDbCircle
 10
103.1419846403
 20
229.6167910577
 30
0.0
 40
1.499999999999994
100
AcDbArc
 50
270.0
 51
90.0
  0
LINE
  5
3F
330
2D
100
AcDbEntity
  8
819-S
  6
Continuous
 62
     7
 48
25.4
100
AcDbLine
 10
100.1419846403
 20
231.1167910577
 30
0.0
 11
103.1419846403
 21
231.1167910577
 31
0.0
  0
LINE
  5
40
330
2D
100
AcDbEntity
  8
819-S
  6
Continuous
 62
     7
 48
25.4
100
AcDbLine
 10
97.1399846403
 20
231.1167910577
 30
0.0
 11
97.1399846403
 21
241.1167910577
 31
0.0
  0
LINE
  5
41
330
2D
100
AcDbEntity
  8
819-S
  6
Continuous
 62
     7
 48
25.4
100
AcDbLine
 10
100.1419846403
 20
241.1167910577
 30
0.0
 11
97.1399846403
 21
241.1167910577
 31
0.0
  0
LINE
  5
42
330
2D
100
AcDbEntity
  8
819-S
  6
Continuous
 62
     7
 48
25.4
100
AcDbLine
 10
97.1399846403
 20
231.1167910577
 30
0.0
 11
100.1419846403
 21
231.1167910577
 31
0.0
  0
LINE
  5
44
330
2D
100
AcDbEntity
  8
819-S
  6
HIDDEN2
 62
     7
 48
25.4
100
AcDbLine
 10
100.1399846403
 20
231.1167910577
 30
0.0
 11
100.1399846403
 21
241.1167910577
 31
0.0
  0
ARC
  5
45
330
2D
100
AcDbEntity
  8
819-S
  6
Continuous
 62
     7
 48
25.4
100
AcDbCircle
 10
311.1379846403
 20
229.6167910577
 30
0.0
 40
1.500000000000001
100
AcDbArc
 50
90.0
 51
270.0
  0
LINE
  5
46
330
2D
100
AcDbEntity
  8
819-S
  6
Continuous
 62
     7
 48
25.4
100
AcDbLine
 10
311.1379846403
 20
228.1167910577
 30
0.0
 11
317.1399846403
 21
228.1167910577
 31
0.0
  0
LINE
  5
47
330
2D
100
AcDbEntity
  8
819-S
  6
Continuous
 62
     7
 48
25.4
100
AcDbLine
 10
314.1379846403
 20
231.1167910577
 30
0.0
 11
311.1379846403
 21
231.1167910577
 31
0.0
  0
LINE
  5
48
330
2D
100
AcDbEntity
  8
819-S
  6
Continuous
 62
     7
 48
25.4
100
AcDbLine
 10
314.1379846403
 20
241.1167910577
 30
0.0
 11
100.1419846403
 21
241.1167910577
 31
0.0
  0
LINE
  5
49
330
2D
100
AcDbEntity
  8
819-S
  6
Continuous
 62
     7
 48
25.4
100
AcDbLine
 10
317.1399846403
 20
231.1167910577
 30
0.0
 11
314.1379846403
 21
231.1167910577
 31
0.0
  0
LINE
  5
4A
330
2D
100
AcDbEntity
  8
819-S
  6
Continuous
 62
     7
 48
25.4
100
AcDbLine
 10
314.1379846403
 20
241.1167910577
 30
0.0
 11
317.1399846403
 21
241.1167910577
 31
0.0
  0
LINE
  5
4B
330
2D
100
AcDbEntity
  8
819-S
  6
Continuous
 62
     7
 48
25.4
100
AcDbLine
 10
317.1399846403
 20
241.1167910577
 30
0.0
 11
317.1399846403
 21
231.1167910577
 31
0.0
  0
LINE
  5
4C
330
2D
100
AcDbEntity
  8
819-S
  6
HIDDEN2
 62
     7
 48
25.4
100
AcDbLine
 10
314.1399846403
 20
241.1167910577
 30
0.0
 11
314.1399846403
 21
231.1167910577
 31
0.0
  0
CIRCLE
  5
4D
330
2D
100
AcDbEntity
  8
819-S
  6
Continuous
 62
     7
 48
25.4
100
AcDbCircle
 10
207.1399846403
 20
107.6056112673
 30
0.0
 40
1.5
  0
CIRCLE
  5
4E
330
2D
100
AcDbEntity
  8
819-S
  6
Continuous
 62
     7
 48
25.4
100
AcDbCircle
 10
241.7450216568
 20
157.7049661791
 30
0.0
 40
2.0
  0
CIRCLE
  5
4F
330
2D
100
AcDbEntity
  8
819-S
  6
Continuous
 62
     7
 48
25.4
100
AcDbCircle
 10
120.006880406
 20
131.1797574719
 30
0.0
 40
2.0
  0
CIRCLE
  5
50
330
2D
100
AcDbEntity
  8
819-S
  6
Continuous
 62
     7
 48
25.4
100
AcDbCircle
 10
120.006880406
 20
213.1797574718
 30
0.0
 40
2.0
  0
CIRCLE
  5
51
330
2D
100
AcDbEntity
  8
819-S
  6
Continuous
 62
     7
 48
25.4
100
AcDbCircle
 10
171.106880406
 20
213.1797574718
 30
0.0
 40
2.0
  0
CIRCLE
  5
52
330
2D
100
AcDbEntity
  8
819-S
  6
Continuous
 62
     7
 48
25.4
100
AcDbCircle
 10
170.906880406
 20
130.5797574719
 30
0.0
 40
2.0
  0
CIRCLE
  5
53
330
2D
100
AcDbEntity
  8
819-S
  6
Continuous
 62
     7
 48
25.4
100
AcDbCircle
 10
192.2749494887
 20
135.3513586251
 30
0.0
 40
2.000000000000002
  0
CIRCLE
  5
54
330
2D
100
AcDbEntity
  8
819-S
  6
Continuous
 62
     7
 48
25.4
100
AcDbCircle
 10
192.1749494887
 20
222.8513586251
 30
0.0
 40
2.000000000000002
  0
CIRCLE
  5
55
330
2D
100
AcDbEntity
  8
819-S
  6
Continuous
 62
     7
 48
25.4
100
AcDbCircle
 10
274.1249494887
 20
207.5513586251
 30
0.0
 40
2.000000000000002
  0
CIRCLE
  5
56
330
2D
100
AcDbEntity
  8
819-S
  6
Continuous
 62
     7
 48
25.4
100
AcDbCircle
 10
288.5249494887
 20
134.6513586251
 30
0.0
 40
2.000000000000002
  0
CIRCLE
  5
57
330
2D
100
AcDbEntity
  8
819-S
  6
Continuous
 62
     7
 48
25.4
100
AcDbCircle
 10
126.2866100244
 20
173.2139988012
 30
0.0
 40
2.0
  0
CIRCLE
  5
58
330
2D
100
AcDbEntity
  8
819-S
  6
Continuous
 62
     7
 48
25.4
100
AcDbCircle
 10
110.1200199603
 20
202.0711955355
 30
0.0
 40
2.0
  0
CIRCLE
  5
59
330
2D
100
AcDbEntity
  8
819-S
  6
Continuous
 62
     7
 48
25.4
100
AcDbCircle
 10
231.0622026182
 20
120.1074352723
 30
0.0
 40
2.0
  0
CIRCLE
  5
5A
330
2D
100
AcDbEntity
  8
819-S
  6
Continuous
 62
     7
 48
25.4
100
AcDbCircle
 10
231.3932604776
 20
151.528493645
 30
0.0
 40
2.0
  0
CIRCLE
  5
5B
330
2D
100
AcDbEntity
  8
819-S
  6
Continuous
 62
     7
 48
25.4
100
AcDbCircle
 10
273.3106749799
 20
151.564647445
 30
0.0
 40
2.0
  0
CIRCLE
  5
5C
330
2D
100
AcDbEntity
  8
819-S
  6
Continuous
 62
     7
 48
25.4
100
AcDbCircle
 10
273.4876500788
 20
120.657837459
 30
0.0
 40
2.0
  0
CIRCLE
  5
5D
330
2D
100
AcDbEntity
  8
819-S
  6
Continuous
 62
     7
 48
25.4
100
AcDbCircle
 10
112.1526213671
 20
142.3063364386
 30
0.0
 40
2.0
  0
CIRCLE
  5
5E
330
2D
100
AcDbEntity
  8
819-S
  6
Continuous
 62
     7
 48
25.4
100
AcDbCircle
 10
151.2526213671
 20
142.3063364386
 30
0.0
 40
2.0
  0
CIRCLE
  5
5F
330
2D
100
AcDbEntity
  8
819-S
  6
Continuous
 62
     7
 48
25.4
100
AcDbCircle
 10
290.4550216568
 20
157.7049661791
 30
0.0
 40
2.0
  0
LINE
  5
60
330
2D
100
AcDbEntity
  8
819-S
  6
HIDDEN2
 62
     7
 48
25.4
100
AcDbLine
 10
97.1399846403
 20
234.6167910577
 30
0.0
 11
100.1399846403
 21
234.6167910577
 31
0.0
  0
LINE
  5
61
330
2D
100
AcDbEntity
  8
819-S
  6
HIDDEN2
 62
     7
 48
25.4
100
AcDbLine
 10
100.1399846403
 20
237.6167910577
 30
0.0
 11
97.1399846403
 21
237.6167910577
 31
0.0
  0
LINE
  5
62
330
2D
100
AcDbEntity
  8
819-S
  6
HIDDEN2
 62
     7
 48
25.4
100
AcDbLine
 10
317.1399846403
 20
237.6167910577
 30
0.0
 11
314.1399846403
 21
237.6167910577
 31
0.0
  0
LINE
  5
63
330
2D
100
AcDbEntity
  8
819-S
  6
HIDDEN2
 62
     7
 48
25.4
100
AcDbLine
 10
314.1399846403
 20
234.6167910577
 30
0.0
 11
317.1399846403
 21
234.6167910577
 31
0.0
  0
ENDBLK
  5
65
330
2D
100
AcDbEntity
  8
0
100
AcDbBlockEnd
  0
BLOCK
  5
6C
330
66
100
AcDbEntity
  8
0
100
AcDbBlockBegin
  2
GDimGGroup
 70
     0
 71
     0
 10
0.0
 20
0.0
 30
0.0
  3
GDimGGroup
  1

  0
LINE
  5
68
330
66
100
AcDbEntity
  8
Default
  6
Continuous
 62
     7
 48
25.4
100
AcDbLine
 10
317.1399846403
 20
230.3667909608
 30
0.0
 11
317.1399846403
 21
264.0879250274
 31
0.0
  0
HATCH
  5
69
330
66
100
AcDbEntity
  8
Default
  6
Continuous
 62
   136
 48
25.4
100
AcDbHatch
 10
0.0
 20
0.0
 30
0.0
210
0.0
220
0.0
230
1.0
  2
SOLID
 70
     1
 71
     0
 91
        1
 92
        1
 93
        1
 72
     3
 10
317.1399846403416
 20
261.8379251242524
 11
1.49999993542832
 21
0.0
 40
1.0
 50
0.0
 51
360.0
 73
     1
 97
        0
 75
     0
 76
     1
 98
        0
  0
TEXT
  5
6B
330
66
100
AcDbEntity
  8
Default
  6
Continuous
 62
     7
 48
25.4
100
AcDbText
 10
315.3085892915
 20
266.7879250274
 30
0.0
 40
4.5
  1
0
  7
SEACAD_seans_ttf
 11
315.3085892915
 21
271.2879250274
 31
0.0
100
AcDbText
 73
     3
  0
ENDBLK
  5
6D
330
66
100
AcDbEntity
  8
0
100
AcDbBlockEnd
  0
BLOCK
  5
72
330
6E
100
AcDbEntity
  8
0
100
AcDbBlockBegin
  2
GDimGGroup1
 70
     0
 71
     0
 10
0.0
 20
0.0
 30
0.0
  3
GDimGGroup1
  1

  0
LINE
  5
70
330
6E
100
AcDbEntity
  8
Default
  6
Continuous
 62
     7
 48
25.4
100
AcDbLine
 10
290.4550216568
 20
159.9549660823
 30
0.0
 11
290.4550216568
 21
167.5488138935
 31
0.0
  0
TEXT
  5
71
330
6E
100
AcDbEntity
  8
Default
  6
Continuous
 62
     7
 48
25.4
100
AcDbText
 10
282.8154867731
 20
170.2488138935
 30
0.0
 40
4.5
  1
26.68
  7
SEACAD_seans_ttf
 11
282.8154867731
 21
174.7488138935
 31
0.0
100
AcDbText
 73
     3
  0
ENDBLK
  5
73
330
6E
100
AcDbEntity
  8
0
100
AcDbBlockEnd
  0
BLOCK
  5
78
330
74
100
AcDbEntity
  8
0
100
AcDbBlockBegin
  2
GDimGGroup2
 70
     0
 71
     0
 10
0.0
 20
0.0
 30
0.0
  3
GDimGGroup2
  1

  0
LINE
  5
76
330
74
100
AcDbEntity
  8
Default
  6
Continuous
 62
     7
 48
25.4
100
AcDbLine
 10
288.5249494887
 20
136.9013585282
 30
0.0
 11
288.5249494887
 21
144.3174801899
 31
0.0
  0
TEXT
  5
77
330
74
100
AcDbEntity
  8
Default
  6
Continuous
 62
     7
 48
25.4
100
AcDbText
 10
280.885414605
 20
147.0174801899
 30
0.0
 40
4.5
  1
28.62
  7
SEACAD_seans_ttf
 11
280.885414605
 21
151.5174801899
 31
0.0
100
AcDbText
 73
     3
  0
ENDBLK
  5
79
330
74
100
AcDbEntity
  8
0
100
AcDbBlockEnd
  0
BLOCK
  5
7E
330
7A
100
AcDbEntity
  8
0
100
AcDbBlockBegin
  2
GDimGGroup3
 70
     0
 71
     0
 10
0.0
 20
0.0
 30
0.0
  3
GDimGGroup3
  1

  0
LINE
  5
7C
330
7A
100
AcDbEntity
  8
Default
  6
Continuous
 62
     7
 48
25.4
100
AcDbLine
 10
273.4876500788
 20
122.9078373621
 30
0.0
 11
273.4876500788
 21
129.3461820791
 31
0.0
  0
TEXT
  5
7D
330
7A
100
AcDbEntity
  8
Default
  6
Continuous
 62
     7
 48
25.4
100
AcDbText
 10
265.7434640323
 20
132.0461820791
 30
0.0
 40
4.5
  1
43.65
  7
SEACAD_seans_ttf
 11
265.7434640323
 21
136.5461820791
 31
0.0
100
AcDbText
 73
     3
  0
ENDBLK
  5
7F
330
7A
100
AcDbEntity
  8
0
100
AcDbBlockEnd
  0
BLOCK
  5
84
330
80
100
AcDbEntity
  8
0
100
AcDbBlockBegin
  2
GDimGGroup4
 70
     0
 71
     0
 10
0.0
 20
0.0
 30
0.0
  3
GDimGGroup4
  1

  0
LINE
  5
82
330
80
100
AcDbEntity
  8
Default
  6
Continuous
 62
     7
 48
25.4
100
AcDbLine
 10
273.3106749799
 20
153.8146473482
 30
0.0
 11
273.3106749799
 21
160.8375422671
 31
0.0
  0
TEXT
  5
83
330
80
100
AcDbEntity
  8
Default
  6
Continuous
 62
     7
 48
25.4
100
AcDbText
 10
265.6711400962
 20
163.5375422671
 30
0.0
 40
4.5
  1
43.83
  7
SEACAD_seans_ttf
 11
265.6711400962
 21
168.0375422671
 31
0.0
100
AcDbText
 73
     3
  0
ENDBLK
  5
85
330
80
100
AcDbEntity
  8
0
100
AcDbBlockEnd
  0
BLOCK
  5
8A
330
86
100
AcDbEntity
  8
0
100
AcDbBlockBegin
  2
GDimGGroup5
 70
     0
 71
     0
 10
0.0
 20
0.0
 30
0.0
  3
GDimGGroup5
  1

  0
LINE
  5
88
330
86
100
AcDbEntity
  8
Default
  6
Continuous
 62
     7
 48
25.4
100
AcDbLine
 10
274.1249494887
 20
209.8013585282
 30
0.0
 11
274.1249494887
 21
218.1415049208
 31
0.0
  0
TEXT
  5
89
330
86
100
AcDbEntity
  8
Default
  6
Continuous
 62
     7
 48
25.4
100
AcDbText
 10
266.3807634422
 20
220.8415049208
 30
0.0
 40
4.5
  1
43.02
  7
SEACAD_seans_ttf
 11
266.3807634422
 21
225.3415049208
 31
0.0
100
AcDbText
 73
     3
  0
ENDBLK
  5
8B
330
86
100
AcDbEntity
  8
0
100
AcDbBlockEnd
  0
BLOCK
  5
90
330
8C
100
AcDbEntity
  8
0
100
AcDbBlockBegin
  2
GDimGGroup6
 70
     0
 71
     0
 10
0.0
 20
0.0
 30
0.0
  3
GDimGGroup6
  1

  0
LINE
  5
8E
330
8C
100
AcDbEntity
  8
Default
  6
Continuous
 62
     7
 48
25.4
100
AcDbLine
 10
241.7450216568
 20
159.9549660823
 30
0.0
 11
241.7450216568
 21
169.6138242623
 31
0.0
  0
TEXT
  5
8F
330
8C
100
AcDbEntity
  8
Default
  6
Continuous
 62
     7
 48
25.4
100
AcDbText
 10
234.1578123545
 20
172.3138242623
 30
0.0
 40
4.5
  1
75.39
  7
SEACAD_seans_ttf
 11
234.1578123545
 21
176.8138242623
 31
0.0
100
AcDbText
 73
     3
  0
ENDBLK
  5
91
330
8C
100
AcDbEntity
  8
0
100
AcDbBlockEnd
  0
BLOCK
  5
96
330
92
100
AcDbEntity
  8
0
100
AcDbBlockBegin
  2
GDimGGroup7
 70
     0
 71
     0
 10
0.0
 20
0.0
 30
0.0
  3
GDimGGroup7
  1

  0
LINE
  5
94
330
92
100
AcDbEntity
  8
Default
  6
Continuous
 62
     7
 48
25.4
100
AcDbLine
 10
231.3932604776
 20
153.7784935481
 30
0.0
 11
231.3932604776
 21
159.805037225
 31
0.0
  0
TEXT
  5
95
330
92
100
AcDbEntity
  8
Default
  6
Continuous
 62
     7
 48
25.4
100
AcDbText
 10
223.8583767567
 20
162.505037225
 30
0.0
 40
4.5
  1
85.75
  7
SEACAD_seans_ttf
 11
223.8583767567
 21
167.005037225
 31
0.0
100
AcDbText
 73
     3
  0
ENDBLK
  5
97
330
92
100
AcDbEntity
  8
0
100
AcDbBlockEnd
  0
BLOCK
  5
9C
330
98
100
AcDbEntity
  8
0
100
AcDbBlockBegin
  2
GDimGGroup8
 70
     0
 71
     0
 10
0.0
 20
0.0
 30
0.0
  3
GDimGGroup8
  1

  0
LINE
  5
9A
330
98
100
AcDbEntity
  8
Default
  6
Continuous
 62
     7
 48
25.4
100
AcDbLine
 10
231.0622026182
 20
122.3574351754
 30
0.0
 11
231.0622026182
 21
133.9924406495
 31
0.0
  0
TEXT
  5
9B
330
98
100
AcDbEntity
  8
Default
  6
Continuous
 62
     7
 48
25.4
100
AcDbText
 10
223.5273188972
 20
136.6924406495
 30
0.0
 40
4.5
  1
86.08
  7
SEACAD_seans_ttf
 11
223.5273188972
 21
141.1924406495
 31
0.0
100
AcDbText
 73
     3
  0
ENDBLK
  5
9D
330
98
100
AcDbEntity
  8
0
100
AcDbBlockEnd
  0
BLOCK
  5
A2
330
9E
100
AcDbEntity
  8
0
100
AcDbBlockBegin
  2
GDimGGroup9
 70
     0
 71
     0
 10
0.0
 20
0.0
 30
0.0
  3
GDimGGroup9
  1

  0
LINE
  5
A0
330
9E
100
AcDbEntity
  8
Default
  6
Continuous
 62
     7
 48
25.4
100
AcDbLine
 10
192.2749494887
 20
137.6013585282
 30
0.0
 11
192.2749494887
 21
143.2849743319
 31
0.0
  0
TEXT
  5
A1
330
9E
100
AcDbEntity
  8
Default
  6
Continuous
 62
     7
 48
25.4
100
AcDbText
 10
183.5889029771
 20
145.9849743319
 30
0.0
 40
4.5
  1
124.87
  7
SEACAD_seans_ttf
 11
183.5889029771
 21
150.4849743319
 31
0.0
100
AcDbText
 73
     3
  0
ENDBLK
  5
A3
330
9E
100
AcDbEntity
  8
0
100
AcDbBlockEnd
  0
BLOCK
  5
A8
330
A4
100
AcDbEntity
  8
0
100
AcDbBlockBegin
  2
GDimGGroup10
 70
     0
 71
     0
 10
0.0
 20
0.0
 30
0.0
  3
GDimGGroup10
  1

  0
LINE
  5
A6
330
A4
100
AcDbEntity
  8
Default
  6
Continuous
 62
     7
 48
25.4
100
AcDbLine
 10
192.1749494887
 20
225.1013585282
 30
0.0
 11
192.1749494887
 21
230.5315502835
 31
0.0
  0
TEXT
  5
A7
330
A4
100
AcDbEntity
  8
Default
  6
Continuous
 62
     7
 48
25.4
100
AcDbText
 10
183.4365773957
 20
233.2315502835
 30
0.0
 40
4.5
  1
124.97
  7
SEACAD_seans_ttf
 11
183.4365773957
 21
237.7315502835
 31
0.0
100
AcDbText
 73
     3
  0
ENDBLK
  5
A9
330
A4
100
AcDbEntity
  8
0
100
AcDbBlockEnd
  0
BLOCK
  5
AE
330
AA
100
AcDbEntity
  8
0
100
AcDbBlockBegin
  2
GDimGGroup11
 70
     0
 71
     0
 10
0.0
 20
0.0
 30
0.0
  3
GDimGGroup11
  1

  0
LINE
  5
AC
330
AA
100
AcDbEntity
  8
Default
  6
Continuous
 62
     7
 48
25.4
100
AcDbLine
 10
171.106880406
 20
215.429757375
 30
0.0
 11
171.106880406
 21
222.7877719586
 31
0.0
  0
TEXT
  5
AD
330
AA
100
AcDbEntity
  8
Default
  6
Continuous
 62
     7
 48
25.4
100
AcDbText
 10
162.2115315688
 20
225.4877719586
 30
0.0
 40
4.5
  1
146.03
  7
SEACAD_seans_ttf
 11
162.2115315688
 21
229.9877719586
 31
0.0
100
AcDbText
 73
     3
  0
ENDBLK
  5
AF
330
AA
100
AcDbEntity
  8
0
100
AcDbBlockEnd
  0
BLOCK
  5
B4
330
B0
100
AcDbEntity
  8
0
100
AcDbBlockBegin
  2
GDimGGroup12
 70
     0
 71
     0
 10
0.0
 20
0.0
 30
0.0
  3
GDimGGroup12
  1

  0
LINE
  5
B2
330
B0
100
AcDbEntity
  8
Default
  6
Continuous
 62
     7
 48
25.4
100
AcDbLine
 10
170.906880406
 20
132.829757375
 30
0.0
 11
170.906880406
 21
144.3174797719
 31
0.0
  0
TEXT
  5
B3
330
B0
100
AcDbEntity
  8
Default
  6
Continuous
 62
     7
 48
25.4
100
AcDbText
 10
162.0115315688
 20
147.0174797719
 30
0.0
 40
4.5
  1
146.23
  7
SEACAD_seans_ttf
 11
162.0115315688
 21
151.5174797719
 31
0.0
100
AcDbText
 73
     3
  0
ENDBLK
  5
B5
330
B0
100
AcDbEntity
  8
0
100
AcDbBlockEnd
  0
BLOCK
  5
BA
330
B6
100
AcDbEntity
  8
0
100
AcDbBlockBegin
  2
GDimGGroup13
 70
     0
 71
     0
 10
0.0
 20
0.0
 30
0.0
  3
GDimGGroup13
  1

  0
LINE
  5
B8
330
B6
100
AcDbEntity
  8
Default
  6
Continuous
 62
     7
 48
25.4
100
AcDbLine
 10
151.2526213671
 20
144.5563363417
 30
0.0
 11
151.2526213671
 21
152.5775122031
 31
0.0
  0
TEXT
  5
B9
330
B6
100
AcDbEntity
  8
Default
  6
Continuous
 62
     7
 48
25.4
100
AcDbText
 10
142.514249274
 20
155.2775122031
 30
0.0
 40
4.5
  1
165.89
  7
SEACAD_seans_ttf
 11
142.514249274
 21
159.7775122031
 31
0.0
100
AcDbText
 73
     3
  0
ENDBLK
  5
BB
330
B6
100
AcDbEntity
  8
0
100
AcDbBlockEnd
  0
BLOCK
  5
C0
330
BC
100
AcDbEntity
  8
0
100
AcDbBlockBegin
  2
GDimGGroup14
 70
     0
 71
     0
 10
0.0
 20
0.0
 30
0.0
  3
GDimGGroup14
  1

  0
LINE
  5
BE
330
BC
100
AcDbEntity
  8
Default
  6
Continuous
 62
     7
 48
25.4
100
AcDbLine
 10
120.006880406
 20
128.9297575688
 30
0.0
 11
120.006880406
 21
124.3299213795
 31
0.0
  0
TEXT
  5
BF
330
BC
100
AcDbEntity
  8
Default
  6
Continuous
 62
     7
 48
25.4
100
AcDbText
 10
111.9487408711
 20
117.1299213795
 30
0.0
 40
4.5
  1
197.13
  7
SEACAD_seans_ttf
 11
111.9487408711
 21
121.6299213795
 31
0.0
100
AcDbText
 73
     3
  0
ENDBLK
  5
C1
330
BC
100
AcDbEntity
  8
0
100
AcDbBlockEnd
  0
BLOCK
  5
C6
330
C2
100
AcDbEntity
  8
0
100
AcDbBlockBegin
  2
GDimGGroup15
 70
     0
 71
     0
 10
0.0
 20
0.0
 30
0.0
  3
GDimGGroup15
  1

  0
LINE
  5
C4
330
C2
100
AcDbEntity
  8
Default
  6
Continuous
 62
     7
 48
25.4
100
AcDbLine
 10
112.1526213671
 20
144.5563363417
 30
0.0
 11
112.1526213671
 21
152.0612614735
 31
0.0
  0
TEXT
  5
C5
330
C2
100
AcDbEntity
  8
Default
  6
Continuous
 62
     7
 48
25.4
100
AcDbText
 10
102.6816911345
 20
154.7612614735
 30
0.0
 40
4.5
  1
204.99
  7
SEACAD_seans_ttf
 11
102.6816911345
 21
159.2612614735
 31
0.0
100
AcDbText
 73
     3
  0
ENDBLK
  5
C7
330
C2
100
AcDbEntity
  8
0
100
AcDbBlockEnd
  0
BLOCK
  5
CC
330
C8
100
AcDbEntity
  8
0
100
AcDbBlockBegin
  2
GDimGGroup16
 70
     0
 71
     0
 10
0.0
 20
0.0
 30
0.0
  3
GDimGGroup16
  1

  0
LINE
  5
CA
330
C8
100
AcDbEntity
  8
Default
  6
Continuous
 62
     7
 48
25.4
100
AcDbLine
 10
126.2866100244
 20
175.4639987043
 30
0.0
 11
126.2866100244
 21
182.0038724831
 31
0.0
  0
TEXT
  5
CB
330
C8
100
AcDbEntity
  8
Default
  6
Continuous
 62
     7
 48
25.4
100
AcDbText
 10
117.5482379314
 20
184.7038724831
 30
0.0
 40
4.5
  1
190.85
  7
SEACAD_seans_ttf
 11
117.5482379314
 21
189.2038724831
 31
0.0
100
AcDbText
 73
     3
  0
ENDBLK
  5
CD
330
C8
100
AcDbEntity
  8
0
100
AcDbBlockEnd
  0
BLOCK
  5
D2
330
CE
100
AcDbEntity
  8
0
100
AcDbBlockBegin
  2
GDimGGroup17
 70
     0
 71
     0
 10
0.0
 20
0.0
 30
0.0
  3
GDimGGroup17
  1

  0
LINE
  5
D0
330
CE
100
AcDbEntity
  8
Default
  6
Continuous
 62
     7
 48
25.4
100
AcDbLine
 10
110.1200199603
 20
199.8211956323
 30
0.0
 11
110.1200199603
 21
197.1214405001
 31
0.0
  0
TEXT
  5
D1
330
CE
100
AcDbEntity
  8
Default
  6
Continuous
 62
     7
 48
25.4
100
AcDbText
 10
100.6490897277
 20
189.9214405001
 30
0.0
 40
4.5
  1
207.02
  7
SEACAD_seans_ttf
 11
100.6490897277
 21
194.4214405001
 31
0.0
100
AcDbText
 73
     3
  0
ENDBLK
  5
D3
330
CE
100
AcDbEntity
  8
0
100
AcDbBlockEnd
  0
BLOCK
  5
D8
330
D4
100
AcDbEntity
  8
0
100
AcDbBlockBegin
  2
GDimGGroup18
 70
     0
 71
     0
 10
0.0
 20
0.0
 30
0.0
  3
GDimGGroup18
  1

  0
LINE
  5
D6
330
D4
100
AcDbEntity
  8
Default
  6
Continuous
 62
     7
 48
25.4
100
AcDbLine
 10
120.006880406
 20
215.429757375
 30
0.0
 11
120.006880406
 21
221.7552704994
 31
0.0
  0
TEXT
  5
D7
330
D4
100
AcDbEntity
  8
Default
  6
Continuous
 62
     7
 48
25.4
100
AcDbText
 10
111.9487408711
 20
224.4552704994
 30
0.0
 40
4.5
  1
197.13
  7
SEACAD_seans_ttf
 11
111.9487408711
 21
228.9552704994
 31
0.0
100
AcDbText
 73
     3
  0
ENDBLK
  5
D9
330
D4
100
AcDbEntity
  8
0
100
AcDbBlockEnd
  0
BLOCK
  5
DE
330
DA
100
AcDbEntity
  8
0
100
AcDbBlockBegin
  2
GDimGGroup19
 70
     0
 71
     0
 10
0.0
 20
0.0
 30
0.0
  3
GDimGGroup19
  1

  0
LINE
  5
DC
330
DA
100
AcDbEntity
  8
Default
  6
Continuous
 62
     7
 48
25.4
100
AcDbLine
 10
97.1399846403
 20
243.3667909608
 30
0.0
 11
97.1399846403
 21
264.0879247592
 31
0.0
  0
TEXT
  5
DD
330
DA
100
AcDbEntity
  8
Default
  6
Continuous
 62
     7
 48
25.4
100
AcDbText
 10
91.6457985938
 20
266.7879247592
 30
0.0
 40
4.5
  1
220
  7
SEACAD_seans_ttf
 11
91.6457985938
 21
271.2879247592
 31
0.0
100
AcDbText
 73
     3
  0
ENDBLK
  5
DF
330
DA
100
AcDbEntity
  8
0
100
AcDbBlockEnd
  0
BLOCK
  5
E4
330
E0
100
AcDbEntity
  8
0
100
AcDbBlockBegin
  2
GDimGGroup20
 70
     0
 71
     0
 10
0.0
 20
0.0
 30
0.0
  3
GDimGGroup20
  1

  0
LINE
  5
E2
330
E0
100
AcDbEntity
  8
Default
  6
Continuous
 62
     7
 48
25.4
100
AcDbLine
 10
207.1399846403
 20
109.8556111704
 30
0.0
 11
207.1399846403
 21
119.829921345
 31
0.0
  0
TEXT
  5
E3
330
E0
100
AcDbEntity
  8
Default
  6
Continuous
 62
     7
 48
25.4
100
AcDbText
 10
203.0062637101
 20
122.529921345
 30
0.0
 40
4.5
  1
110
  7
SEACAD_seans_ttf
 11
203.0062637101
 21
127.029921345
 31
0.0
100
AcDbText
 73
     3
  0
ENDBLK
  5
E5
330
E0
100
AcDbEntity
  8
0
100
AcDbBlockEnd
  0
BLOCK
  5
EB
330
E6
100
AcDbEntity
  8
0
100
AcDbBlockBegin
  2
GDimGGroup21
 70
     0
 71
     0
 10
0.0
 20
0.0
 30
0.0
  3
GDimGGroup21
  1

  0
LINE
  5
E8
330
E6
100
AcDbEntity
  8
Default
  6
Continuous
 62
     7
 48
25.4
100
AcDbLine
 10
316.3879845435
 20
241.1167910577
 30
0.0
 11
340.0017205769
 21
241.1167910577
 31
0.0
  0
HATCH
  5
E9
330
E6
100
AcDbEntity
  8
Default
  6
Continuous
 62
   136
 48
25.4
100
AcDbHatch
 10
0.0
 20
0.0
 30
0.0
210
0.0
220
0.0
230
1.0
  2
SOLID
 70
     1
 71
     0
 91
        1
 92
        1
 93
        1
 72
     3
 10
337.7517206737813
 20
241.1167910576707
 11
1.49999993542832
 21
0.0
 40
1.0
 50
0.0
 51
360.0
 73
     1
 97
        0
 75
     0
 76
     1
 98
        0
  0
TEXT
  5
EA
330
E6
100
AcDbEntity
  8
Default
  6
Continuous
 62
     7
 48
25.4
100
AcDbText
 10
342.7017205769
 20
238.8667910577
 30
0.0
 40
4.5
  1
0
  7
SEACAD_seans_ttf
 11
342.7017205769
 21
243.3667910577
 31
0.0
100
AcDbText
 73
     3
  0
ENDBLK
  5
EC
330
E6
100
AcDbEntity
  8
0
100
AcDbBlockEnd
  0
BLOCK
  5
F1
330
ED
100
AcDbEntity
  8
0
100
AcDbBlockBegin
  2
GDimGGroup22
 70
     0
 71
     0
 10
0.0
 20
0.0
 30
0.0
  3
GDimGGroup22
  1

  0
LINE
  5
EF
330
ED
100
AcDbEntity
  8
Default
  6
Continuous
 62
     7
 48
25.4
100
AcDbLine
 10
276.3749493919
 20
207.5513586251
 30
0.0
 11
285.2790153287
 21
207.5513586251
 31
0.0
  0
TEXT
  5
F0
330
ED
100
AcDbEntity
  8
Default
  6
Continuous
 62
     7
 48
25.4
100
AcDbText
 10
287.9790153287
 20
205.3013586251
 30
0.0
 40
4.5
  1
33.57
  7
SEACAD_seans_ttf
 11
287.9790153287
 21
209.8013586251
 31
0.0
100
AcDbText
 73
     3
  0
ENDBLK
  5
F2
330
ED
100
AcDbEntity
  8
0
100
AcDbBlockEnd
  0
BLOCK
  5
F7
330
F3
100
AcDbEntity
  8
0
100
AcDbBlockBegin
  2
GDimGGroup23
 70
     0
 71
     0
 10
0.0
 20
0.0
 30
0.0
  3
GDimGGroup23
  1

  0
LINE
  5
F5
330
F3
100
AcDbEntity
  8
Default
  6
Continuous
 62
     7
 48
25.4
100
AcDbLine
 10
292.7050215599
 20
157.7049661791
 30
0.0
 11
297.6690640149
 21
157.7049661791
 31
0.0
  0
TEXT
  5
F6
330
F3
100
AcDbEntity
  8
Default
  6
Continuous
 62
     7
 48
25.4
100
AcDbText
 10
300.3690640149
 20
155.4549661791
 30
0.0
 40
4.5
  1
83.41
  7
SEACAD_seans_ttf
 11
300.3690640149
 21
159.9549661791
 31
0.0
100
AcDbText
 73
     3
  0
ENDBLK
  5
F8
330
F3
100
AcDbEntity
  8
0
100
AcDbBlockEnd
  0
BLOCK
  5
FD
330
F9
100
AcDbEntity
  8
0
100
AcDbBlockBegin
  2
GDimGGroup24
 70
     0
 71
     0
 10
0.0
 20
0.0
 30
0.0
  3
GDimGGroup24
  1

  0
LINE
  5
FB
330
F9
100
AcDbEntity
  8
Default
  6
Continuous
 62
     7
 48
25.4
100
AcDbLine
 10
290.7749493919
 20
134.6513586251
 30
0.0
 11
294.0552984677
 21
134.6513586251
 31
0.0
  0
TEXT
  5
FC
330
F9
100
AcDbEntity
  8
Default
  6
Continuous
 62
     7
 48
25.4
100
AcDbText
 10
296.7552984677
 20
132.4013586251
 30
0.0
 40
4.5
  1
106.47
  7
SEACAD_seans_ttf
 11
296.7552984677
 21
136.9013586251
 31
0.0
100
AcDbText
 73
     3
  0
ENDBLK
  5
FE
330
F9
100
AcDbEntity
  8
0
100
AcDbBlockEnd
  0
BLOCK
  5
103
330
FF
100
AcDbEntity
  8
0
100
AcDbBlockBegin
  2
GDimGGroup25
 70
     0
 71
     0
 10
0.0
 20
0.0
 30
0.0
  3
GDimGGroup25
  1

  0
LINE
  5
101
330
FF
100
AcDbEntity
  8
Default
  6
Continuous
 62
     7
 48
25.4
100
AcDbLine
 10
275.7376499819
 20
120.657837459
 30
0.0
 11
288.3765280592
 21
120.657837459
 31
0.0
  0
TEXT
  5
102
330
FF
100
AcDbEntity
  8
Default
  6
Continuous
 62
     7
 48
25.4
100
AcDbText
 10
291.0765280592
 20
118.407837459
 30
0.0
 40
4.5
  1
120.46
  7
SEACAD_seans_ttf
 11
291.0765280592
 21
122.907837459
 31
0.0
100
AcDbText
 73
     3
  0
ENDBLK
  5
104
330
FF
100
AcDbEntity
  8
0
100
AcDbBlockEnd
  0
BLOCK
  5
109
330
105
100
AcDbEntity
  8
0
100
AcDbBlockBegin
  2
GDimGGroup26
 70
     0
 71
     0
 10
0.0
 20
0.0
 30
0.0
  3
GDimGGroup26
  1

  0
LINE
  5
107
330
105
100
AcDbEntity
  8
Default
  6
Continuous
 62
     7
 48
25.4
100
AcDbLine
 10
271.0606750767
 20
151.564647445
 30
0.0
 11
266.8402136039
 21
151.564647445
 31
0.0
  0
TEXT
  5
108
330
105
100
AcDbEntity
  8
Default
  6
Continuous
 62
     7
 48
25.4
100
AcDbText
 10
248.9657949992
 20
149.314647445
 30
0.0
 40
4.5
  1
89.55
  7
SEACAD_seans_ttf
 11
248.9657949992
 21
153.814647445
 31
0.0
100
AcDbText
 73
     3
  0
ENDBLK
  5
10A
330
105
100
AcDbEntity
  8
0
100
AcDbBlockEnd
  0
BLOCK
  5
10E
330
10B
100
AcDbEntity
  8
0
100
AcDbBlockBegin
  2
GDimGGroup27
 70
     0
 71
     0
 10
0.0
 20
0.0
 30
0.0
  3
GDimGGroup27
  1

  0
TEXT
  5
10D
330
10B
100
AcDbEntity
  8
Default
  6
Continuous
 62
     7
 48
25.4
100
AcDbText
 10
247.0402125469
 20
155.4549661791
 30
0.0
 40
4.5
  1
83.41
  7
SEACAD_seans_ttf
 11
247.0402125469
 21
159.9549661791
 31
0.0
100
AcDbText
 73
     3
  0
ENDBLK
  5
10F
330
10B
100
AcDbEntity
  8
0
100
AcDbBlockEnd
  0
BLOCK
  5
114
330
110
100
AcDbEntity
  8
0
100
AcDbBlockBegin
  2
GDimGGroup28
 70
     0
 71
     0
 10
0.0
 20
0.0
 30
0.0
  3
GDimGGroup28
  1

  0
LINE
  5
112
330
110
100
AcDbEntity
  8
Default
  6
Continuous
 62
     7
 48
25.4
100
AcDbLine
 10
229.1432605745
 20
151.528493645
 30
0.0
 11
221.8402126493
 21
151.528493645
 31
0.0
  0
TEXT
  5
113
330
110
100
AcDbEntity
  8
Default
  6
Continuous
 62
     7
 48
25.4
100
AcDbText
 10
204.0704452074
 20
149.278493645
 30
0.0
 40
4.5
  1
89.59
  7
SEACAD_seans_ttf
 11
204.0704452074
 21
153.778493645
 31
0.0
100
AcDbText
 73
     3
  0
ENDBLK
  5
115
330
110
100
AcDbEntity
  8
0
100
AcDbBlockEnd
  0
BLOCK
  5
119
330
116
100
AcDbEntity
  8
0
100
AcDbBlockBegin
  2
GDimGGroup29
 70
     0
 71
     0
 10
0.0
 20
0.0
 30
0.0
  3
GDimGGroup29
  1

  0
TEXT
  5
118
330
116
100
AcDbEntity
  8
Default
  6
Continuous
 62
     7
 48
25.4
100
AcDbText
 10
238.0402133069
 20
117.8574352723
 30
0.0
 40
4.5
  1
121.01
  7
SEACAD_seans_ttf
 11
238.0402133069
 21
122.3574352723
 31
0.0
100
AcDbText
 73
     3
  0
ENDBLK
  5
11A
330
116
100
AcDbEntity
  8
0
100
AcDbBlockEnd
  0
BLOCK
  5
11F
330
11B
100
AcDbEntity
  8
0
100
AcDbBlockBegin
  2
GDimGGroup30
 70
     0
 71
     0
 10
0.0
 20
0.0
 30
0.0
  3
GDimGGroup30
  1

  0
LINE
  5
11D
330
11B
100
AcDbEntity
  8
Default
  6
Continuous
 62
     7
 48
25.4
100
AcDbLine
 10
194.5249493919
 20
135.3513586251
 30
0.0
 11
203.1949590645
 21
135.3513586251
 31
0.0
  0
TEXT
  5
11E
330
11B
100
AcDbEntity
  8
Default
  6
Continuous
 62
     7
 48
25.4
100
AcDbText
 10
205.8949590645
 20
133.1013586251
 30
0.0
 40
4.5
  1
105.77
  7
SEACAD_seans_ttf
 11
205.8949590645
 21
137.6013586251
 31
0.0
100
AcDbText
 73
     3
  0
ENDBLK
  5
120
330
11B
100
AcDbEntity
  8
0
100
AcDbBlockEnd
  0
BLOCK
  5
125
330
121
100
AcDbEntity
  8
0
100
AcDbBlockBegin
  2
GDimGGroup31
 70
     0
 71
     0
 10
0.0
 20
0.0
 30
0.0
  3
GDimGGroup31
  1

  0
LINE
  5
123
330
121
100
AcDbEntity
  8
Default
  6
Continuous
 62
     7
 48
25.4
100
AcDbLine
 10
175.1568803091
 20
130.5797574719
 30
0.0
 11
178.4148701925
 21
130.5797574719
 31
0.0
  0
TEXT
  5
124
330
121
100
AcDbEntity
  8
Default
  6
Continuous
 62
     7
 48
25.4
100
AcDbText
 10
181.1148701925
 20
128.3297574719
 30
0.0
 40
4.5
  1
110.54
  7
SEACAD_seans_ttf
 11
181.1148701925
 21
132.8297574719
 31
0.0
100
AcDbText
 73
     3
  0
ENDBLK
  5
126
330
121
100
AcDbEntity
  8
0
100
AcDbBlockEnd
  0
BLOCK
  5
12B
330
127
100
AcDbEntity
  8
0
100
AcDbBlockBegin
  2
GDimGGroup32
 70
     0
 71
     0
 10
0.0
 20
0.0
 30
0.0
  3
GDimGGroup32
  1

  0
LINE
  5
129
330
127
100
AcDbEntity
  8
Default
  6
Continuous
 62
     7
 48
25.4
100
AcDbLine
 10
149.0026214639
 20
142.3063364386
 30
0.0
 11
146.0372680346
 21
142.3063364386
 31
0.0
  0
TEXT
  5
12A
330
127
100
AcDbEntity
  8
Default
  6
Continuous
 62
     7
 48
25.4
100
AcDbText
 10
129.7326168718
 20
140.0563364386
 30
0.0
 40
4.5
  1
98.81
  7
SEACAD_seans_ttf
 11
129.7326168718
 21
144.5563364386
 31
0.0
100
AcDbText
 73
     3
  0
ENDBLK
  5
12C
330
127
100
AcDbEntity
  8
0
100
AcDbBlockEnd
  0
BLOCK
  5
131
330
12D
100
AcDbEntity
  8
0
100
AcDbBlockBegin
  2
GDimGGroup33
 70
     0
 71
     0
 10
0.0
 20
0.0
 30
0.0
  3
GDimGGroup33
  1

  0
LINE
  5
12F
330
12D
100
AcDbEntity
  8
Default
  6
Continuous
 62
     7
 48
25.4
100
AcDbLine
 10
124.2568803092
 20
131.1797574719
 30
0.0
 11
132.4684483071
 21
131.1797574719
 31
0.0
  0
TEXT
  5
130
330
12D
100
AcDbEntity
  8
Default
  6
Continuous
 62
     7
 48
25.4
100
AcDbText
 10
135.1684483071
 20
128.9297574719
 30
0.0
 40
4.5
  1
109.94
  7
SEACAD_seans_ttf
 11
135.1684483071
 21
133.4297574719
 31
0.0
100
AcDbText
 73
     3
  0
ENDBLK
  5
132
330
12D
100
AcDbEntity
  8
0
100
AcDbBlockEnd
  0
BLOCK
  5
137
330
133
100
AcDbEntity
  8
0
100
AcDbBlockBegin
  2
GDimGGroup34
 70
     0
 71
     0
 10
0.0
 20
0.0
 30
0.0
  3
GDimGGroup34
  1

  0
LINE
  5
135
330
133
100
AcDbEntity
  8
Default
  6
Continuous
 62
     7
 48
25.4
100
AcDbLine
 10
109.9026214639
 20
142.3063364386
 30
0.0
 11
91.3145553628
 21
142.3063364386
 31
0.0
  0
TEXT
  5
136
330
133
100
AcDbEntity
  8
Default
  6
Continuous
 62
     7
 48
25.4
100
AcDbText
 10
75.0099042001
 20
140.0563364386
 30
0.0
 40
4.5
  1
98.81
  7
SEACAD_seans_ttf
 11
75.0099042001
 21
144.5563364386
 31
0.0
100
AcDbText
 73
     3
  0
ENDBLK
  5
138
330
133
100
AcDbEntity
  8
0
100
AcDbBlockEnd
  0
BLOCK
  5
13D
330
139
100
AcDbEntity
  8
0
100
AcDbBlockBegin
  2
GDimGGroup35
 70
     0
 71
     0
 10
0.0
 20
0.0
 30
0.0
  3
GDimGGroup35
  1

  0
LINE
  5
13B
330
139
100
AcDbEntity
  8
Default
  6
Continuous
 62
     7
 48
25.4
100
AcDbLine
 10
128.5366099275
 20
173.2139988012
 30
0.0
 11
134.01719741
 21
173.2139988012
 31
0.0
  0
TEXT
  5
13C
330
139
100
AcDbEntity
  8
Default
  6
Continuous
 62
     7
 48
25.4
100
AcDbText
 10
136.71719741
 20
170.9639988012
 30
0.0
 40
4.5
  1
67.9
  7
SEACAD_seans_ttf
 11
136.71719741
 21
175.4639988012
 31
0.0
100
AcDbText
 73
     3
  0
ENDBLK
  5
13E
330
139
100
AcDbEntity
  8
0
100
AcDbBlockEnd
  0
BLOCK
  5
143
330
13F
100
AcDbEntity
  8
0
100
AcDbBlockBegin
  2
GDimGGroup36
 70
     0
 71
     0
 10
0.0
 20
0.0
 30
0.0
  3
GDimGGroup36
  1

  0
LINE
  5
141
330
13F
100
AcDbEntity
  8
Default
  6
Continuous
 62
     7
 48
25.4
100
AcDbLine
 10
112.3700198634
 20
202.0711955355
 30
0.0
 11
118.0133876308
 21
202.0711955355
 31
0.0
  0
TEXT
  5
142
330
13F
100
AcDbEntity
  8
Default
  6
Continuous
 62
     7
 48
25.4
100
AcDbText
 10
120.7133876308
 20
199.8211955355
 30
0.0
 40
4.5
  1
39.05
  7
SEACAD_seans_ttf
 11
120.7133876308
 21
204.3211955355
 31
0.0
100
AcDbText
 73
     3
  0
ENDBLK
  5
144
330
13F
100
AcDbEntity
  8
0
100
AcDbBlockEnd
  0
BLOCK
  5
149
330
145
100
AcDbEntity
  8
0
100
AcDbBlockBegin
  2
GDimGGroup37
 70
     0
 71
     0
 10
0.0
 20
0.0
 30
0.0
  3
GDimGGroup37
  1

  0
LINE
  5
147
330
145
100
AcDbEntity
  8
Default
  6
Continuous
 62
     7
 48
25.4
100
AcDbLine
 10
122.2568803092
 20
213.1797574718
 30
0.0
 11
126.2734287043
 21
213.1797574718
 31
0.0
  0
TEXT
  5
148
330
145
100
AcDbEntity
  8
Default
  6
Continuous
 62
     7
 48
25.4
100
AcDbText
 10
128.9734287043
 20
210.9297574718
 30
0.0
 40
4.5
  1
27.94
  7
SEACAD_seans_ttf
 11
128.9734287043
 21
215.4297574718
 31
0.0
100
AcDbText
 73
     3
  0
ENDBLK
  5
14A
330
145
100
AcDbEntity
  8
0
100
AcDbBlockEnd
  0
BLOCK
  5
14F
330
14B
100
AcDbEntity
  8
0
100
AcDbBlockBegin
  2
GDimGGroup38
 70
     0
 71
     0
 10
0.0
 20
0.0
 30
0.0
  3
GDimGGroup38
  1

  0
LINE
  5
14D
330
14B
100
AcDbEntity
  8
Default
  6
Continuous
 62
     7
 48
25.4
100
AcDbLine
 10
173.3568803091
 20
213.1797574718
 30
0.0
 11
180.4798737784
 21
213.1797574718
 31
0.0
  0
TEXT
  5
14E
330
14B
100
AcDbEntity
  8
Default
  6
Continuous
 62
     7
 48
25.4
100
AcDbText
 10
183.1798737784
 20
210.9297574718
 30
0.0
 40
4.5
  1
27.94
  7
SEACAD_seans_ttf
 11
183.1798737784
 21
215.4297574718
 31
0.0
100
AcDbText
 73
     3
  0
ENDBLK
  5
150
330
14B
100
AcDbEntity
  8
0
100
AcDbBlockEnd
  0
BLOCK
  5
155
330
151
100
AcDbEntity
  8
0
100
AcDbBlockBegin
  2
GDimGGroup39
 70
     0
 71
     0
 10
0.0
 20
0.0
 30
0.0
  3
GDimGGroup39
  1

  0
LINE
  5
153
330
151
100
AcDbEntity
  8
Default
  6
Continuous
 62
     7
 48
25.4
100
AcDbLine
 10
194.4249493919
 20
222.8513586251
 30
0.0
 11
200.0974489294
 21
222.8513586251
 31
0.0
  0
TEXT
  5
154
330
151
100
AcDbEntity
  8
Default
  6
Continuous
 62
     7
 48
25.4
100
AcDbText
 10
202.7974489294
 20
220.6013586251
 30
0.0
 40
4.5
  1
18.27
  7
SEACAD_seans_ttf
 11
202.7974489294
 21
225.1013586251
 31
0.0
100
AcDbText
 73
     3
  0
ENDBLK
  5
156
330
151
100
AcDbEntity
  8
0
100
AcDbBlockEnd
  0
BLOCK
  5
15B
330
157
100
AcDbEntity
  8
0
100
AcDbBlockBegin
  2
GDimGGroup40
 70
     0
 71
     0
 10
0.0
 20
0.0
 30
0.0
  3
GDimGGroup40
  1

  0
LINE
  5
159
330
157
100
AcDbEntity
  8
Default
  6
Continuous
 62
     7
 48
25.4
100
AcDbLine
 10
209.3899845435
 20
107.6056112673
 30
0.0
 11
219.7150214864
 21
107.6056112673
 31
0.0
  0
TEXT
  5
15A
330
157
100
AcDbEntity
  8
Default
  6
Continuous
 62
     7
 48
25.4
100
AcDbText
 10
222.4150214864
 20
105.3556112673
 30
0.0
 40
4.5
  1
133.51
  7
SEACAD_seans_ttf
 11
222.4150214864
 21
109.8556112673
 31
0.0
100
AcDbText
 73
     3
  0
ENDBLK
  5
15C
330
157
100
AcDbEntity
  8
0
100
AcDbBlockEnd
  0
BLOCK
  5
161
330
15D
100
AcDbEntity
  8
0
100
AcDbBlockBegin
  2
GDimGGroup41
 70
     0
 71
     0
 10
0.0
 20
0.0
 30
0.0
  3
GDimGGroup41
  1

  0
LINE
  5
15F
330
15D
100
AcDbEntity
  8
Default
  6
Continuous
 62
     7
 48
25.4
100
AcDbLine
 10
316.3899845435
 20
114.8708894183
 30
0.0
 11
340.001720096
 21
114.8708894183
 31
0.0
  0
TEXT
  5
160
330
15D
100
AcDbEntity
  8
Default
  6
Continuous
 62
     7
 48
25.4
100
AcDbText
 10
342.701720096
 20
112.6208894183
 30
0.0
 40
4.5
  1
126.25
  7
SEACAD_seans_ttf
 11
342.701720096
 21
117.1208894183
 31
0.0
100
AcDbText
 73
     3
  0
ENDBLK
  5
162
330
15D
100
AcDbEntity
  8
0
100
AcDbBlockEnd
  0
BLOCK
  5
167
330
163
100
AcDbEntity
  8
0
100
AcDbBlockBegin
  2
GDimGGroup42
 70
     0
 71
     0
 10
0.0
 20
0.0
 30
0.0
  3
GDimGGroup42
  1

  0
LINE
  5
165
330
163
100
AcDbEntity
  8
Default
  6
Continuous
 62
     7
 48
25.4
100
AcDbLine
 10
211.3899845435
 20
101.8708894183
 30
0.0
 11
340.5179787232
 21
101.8708894183
 31
0.0
  0
TEXT
  5
166
330
163
100
AcDbEntity
  8
Default
  6
Continuous
 62
     7
 48
25.4
100
AcDbText
 10
343.2179787232
 20
99.6208894183
 30
0.0
 40
4.5
  1
139.25
  7
SEACAD_seans_ttf
 11
343.2179787232
 21
104.1208894183
 31
0.0
100
AcDbText
 73
     3
  0
ENDBLK
  5
168
330
163
100
AcDbEntity
  8
0
100
AcDbBlockEnd
  0
BLOCK
  5
16C
330
169
100
AcDbEntity
  8
0
100
AcDbBlockBegin
  2
_SE_FILLED
 70
     0
 71
     0
 10
0.0
 20
0.0
 30
0.0
  3
_SE_FILLED
  1

  0
SOLID
  5
16A
330
169
100
AcDbEntity
  8
0
100
AcDbTrace
 10
0.0
 20
0.0
 30
0.0
 11
-1.0
 21
-0.1665
 31
0.0
 12
-1.0
 22
0.1665
 32
0.0
 13
0.0
 23
0.0
 33
0.0
  0
LINE
  5
16B
330
169
100
AcDbEntity
  8
0
100
AcDbLine
 10
0.0
 20
0.0
 30
0.0
 11
-1.0
 21
0.0
 31
0.0
  0
ENDBLK
  5
16D
330
169
100
AcDbEntity
  8
0
100
AcDbBlockEnd
  0
BLOCK
  5
178
330
171
100
AcDbEntity
  8
0
100
AcDbBlockBegin
  2
DMBLK39
 70
     0
 71
     0
 10
0.0
 20
0.0
 30
0.0
  3
DMBLK39
  1

  0
LINE
  5
172
330
171
100
AcDbEntity
  8
Default
  6
Continuous
 62
     7
 48
25.4
100
AcDbLine
 10
272.3378365855
 20
208.4492603296
 30
0.0
 11
261.0937100926
 21
214.0986629643
 31
0.0
  0
HATCH
  5
173
330
171
100
AcDbEntity
  8
Default
  6
Continuous
 62
   136
 48
25.4
100
AcDbHatch
 10
0.0
 20
0.0
 30
0.0
210
0.0
220
0.0
230
1.0
  2
SOLID
 70
     1
 71
     0
 91
        1
 92
        1
 93
        3
 72
     1
 10
267.9801196015563
 20
209.7993717680023
 11
272.3378365854919
 21
208.4492603296182
 72
     1
 10
272.3378365854918
 20
208.4492603296182
 11
268.6535458509746
 21
211.1397063877444
 72
     1
 10
268.6535458509747
 20
211.1397063877444
 11
267.9801196015563
 21
209.7993717680023
 97
        0
 75
     0
 76
     1
 98
        0
  0
LWPOLYLINE
  5
174
330
171
100
AcDbEntity
  8
Default
  6
Continuous
 62
   136
 48
25.4
370
    25
100
AcDbPolyline
 90
        4
 70
     1
 43
0.0003
 10
267.9801196016
 20
209.799371768
 10
272.3378365855
 20
208.4492603296
 10
268.653545851
 20
211.1397063877
 10
267.9801196016
 20
209.799371768
  0
LINE
  5
175
330
171
100
AcDbEntity
  8
Default
  6
Continuous
 62
     7
 48
25.4
100
AcDbLine
 10
261.093710339
 20
214.0986628405
 30
0.0
 11
254.3437101639
 21
214.0986628405
 31
0.0
  0
TEXT
  5
176
330
171
100
AcDbEntity
  8
Default
  6
Continuous
 62
     7
 48
25.4
100
AcDbText
 10
241.2743405188
 20
211.8486628405
 30
0.0
 40
4.5
  1
O
  7
SEACAD_semeca1_ttf
 11
241.2743405188
 21
216.3486628405
 31
0.0
100
AcDbText
 73
     3
  0
TEXT
  5
177
330
171
100
AcDbEntity
  8
Default
  6
Continuous
 62
     7
 48
25.4
100
AcDbText
 10
249.1059194662
 20
211.8486628405
 30
0.0
 40
4.5
  1
4
  7
SEACAD_seans_ttf
 11
249.1059194662
 21
216.3486628405
 31
0.0
100
AcDbText
 73
     3
  0
ENDBLK
  5
179
330
171
100
AcDbEntity
  8
0
100
AcDbBlockEnd
  0
ENDSEC
  0
SECTION
  2
ENTITIES
  0
TEXT
  5
2B
330
1F
100
AcDbEntity
  8
Default
  6
Continuous
 62
     7
 48
25.4
100
AcDbText
 10
342.7696550317
 20
42.5173136411
 30
0.0
 40
2.5
  1
Yuris Acosta
  7
SEACAD_arial_ttfI
 11
342.7696550317
 21
45.0173136411
 31
0.0
100
AcDbText
 73
     3
  0
INSERT
  5
2E
330
1F
100
AcDbEntity
  8
Default
100
AcDbBlockReference
  2
SE
 10
0.0
 20
0.0
 30
0.0
  0
INSERT
  5
67
330
1F
100
AcDbEntity
  8
Default
100
AcDbBlockReference
  2
GDimGGroup
 10
0.0
 20
0.0
 30
0.0
  0
INSERT
  5
6F
330
1F
100
AcDbEntity
  8
Default
100
AcDbBlockReference
  2
GDimGGroup1
 10
0.0
 20
0.0
 30
0.0
  0
INSERT
  5
75
330
1F
100
AcDbEntity
  8
Default
100
AcDbBlockReference
  2
GDimGGroup2
 10
0.0
 20
0.0
 30
0.0
  0
INSERT
  5
7B
330
1F
100
AcDbEntity
  8
Default
100
AcDbBlockReference
  2
GDimGGroup3
 10
0.0
 20
0.0
 30
0.0
  0
INSERT
  5
81
330
1F
100
AcDbEntity
  8
Default
100
AcDbBlockReference
  2
GDimGGroup4
 10
0.0
 20
0.0
 30
0.0
  0
INSERT
  5
87
330
1F
100
AcDbEntity
  8
Default
100
AcDbBlockReference
  2
GDimGGroup5
 10
0.0
 20
0.0
 30
0.0
  0
INSERT
  5
8D
330
1F
100
AcDbEntity
  8
Default
100
AcDbBlockReference
  2
GDimGGroup6
 10
0.0
 20
0.0
 30
0.0
  0
INSERT
  5
93
330
1F
100
AcDbEntity
  8
Default
100
AcDbBlockReference
  2
GDimGGroup7
 10
0.0
 20
0.0
 30
0.0
  0
INSERT
  5
99
330
1F
100
AcDbEntity
  8
Default
100
AcDbBlockReference
  2
GDimGGroup8
 10
0.0
 20
0.0
 30
0.0
  0
INSERT
  5
9F
330
1F
100
AcDbEntity
  8
Default
100
AcDbBlockReference
  2
GDimGGroup9
 10
0.0
 20
0.0
 30
0.0
  0
INSERT
  5
A5
330
1F
100
AcDbEntity
  8
Default
100
AcDbBlockReference
  2
GDimGGroup10
 10
0.0
 20
0.0
 30
0.0
  0
INSERT
  5
AB
330
1F
100
AcDbEntity
  8
Default
100
AcDbBlockReference
  2
GDimGGroup11
 10
0.0
 20
0.0
 30
0.0
  0
INSERT
  5
B1
330
1F
100
AcDbEntity
  8
Default
100
AcDbBlockReference
  2
GDimGGroup12
 10
0.0
 20
0.0
 30
0.0
  0
INSERT
  5
B7
330
1F
100
AcDbEntity
  8
Default
100
AcDbBlockReference
  2
GDimGGroup13
 10
0.0
 20
0.0
 30
0.0
  0
INSERT
  5
BD
330
1F
100
AcDbEntity
  8
Default
100
AcDbBlockReference
  2
GDimGGroup14
 10
0.0
 20
0.0
 30
0.0
  0
INSERT
  5
C3
330
1F
100
AcDbEntity
  8
Default
100
AcDbBlockReference
  2
GDimGGroup15
 10
0.0
 20
0.0
 30
0.0
  0
INSERT
  5
C9
330
1F
100
AcDbEntity
  8
Default
100
AcDbBlockReference
  2
GDimGGroup16
 10
0.0
 20
0.0
 30
0.0
  0
INSERT
  5
CF
330
1F
100
AcDbEntity
  8
Default
100
AcDbBlockReference
  2
GDimGGroup17
 10
0.0
 20
0.0
 30
0.0
  0
INSERT
  5
D5
330
1F
100
AcDbEntity
  8
Default
100
AcDbBlockReference
  2
GDimGGroup18
 10
0.0
 20
0.0
 30
0.0
  0
INSERT
  5
DB
330
1F
100
AcDbEntity
  8
Default
100
AcDbBlockReference
  2
GDimGGroup19
 10
0.0
 20
0.0
 30
0.0
  0
INSERT
  5
E1
330
1F
100
AcDbEntity
  8
Default
100
AcDbBlockReference
  2
GDimGGroup20
 10
0.0
 20
0.0
 30
0.0
  0
INSERT
  5
E7
330
1F
100
AcDbEntity
  8
Default
100
AcDbBlockReference
  2
GDimGGroup21
 10
0.0
 20
0.0
 30
0.0
  0
INSERT
  5
EE
330
1F
100
AcDbEntity
  8
Default
100
AcDbBlockReference
  2
GDimGGroup22
 10
0.0
 20
0.0
 30
0.0
  0
INSERT
  5
F4
330
1F
100
AcDbEntity
  8
Default
100
AcDbBlockReference
  2
GDimGGroup23
 10
0.0
 20
0.0
 30
0.0
  0
INSERT
  5
FA
330
1F
100
AcDbEntity
  8
Default
100
AcDbBlockReference
  2
GDimGGroup24
 10
0.0
 20
0.0
 30
0.0
  0
INSERT
  5
100
330
1F
100
AcDbEntity
  8
Default
100
AcDbBlockReference
  2
GDimGGroup25
 10
0.0
 20
0.0
 30
0.0
  0
INSERT
  5
106
330
1F
100
AcDbEntity
  8
Default
100
AcDbBlockReference
  2
GDimGGroup26
 10
0.0
 20
0.0
 30
0.0
  0
INSERT
  5
10C
330
1F
100
AcDbEntity
  8
Default
100
AcDbBlockReference
  2
GDimGGroup27
 10
0.0
 20
0.0
 30
0.0
  0
INSERT
  5
111
330
1F
100
AcDbEntity
  8
Default
100
AcDbBlockReference
  2
GDimGGroup28
 10
0.0
 20
0.0
 30
0.0
  0
INSERT
  5
117
330
1F
100
AcDbEntity
  8
Default
100
AcDbBlockReference
  2
GDimGGroup29
 10
0.0
 20
0.0
 30
0.0
  0
INSERT
  5
11C
330
1F
100
AcDbEntity
  8
Default
100
AcDbBlockReference
  2
GDimGGroup30
 10
0.0
 20
0.0
 30
0.0
  0
INSERT
  5
122
330
1F
100
AcDbEntity
  8
Default
100
AcDbBlockReference
  2
GDimGGroup31
 10
0.0
 20
0.0
 30
0.0
  0
INSERT
  5
128
330
1F
100
AcDbEntity
  8
Default
100
AcDbBlockReference
  2
GDimGGroup32
 10
0.0
 20
0.0
 30
0.0
  0
INSERT
  5
12E
330
1F
100
AcDbEntity
  8
Default
100
AcDbBlockReference
  2
GDimGGroup33
 10
0.0
 20
0.0
 30
0.0
  0
INSERT
  5
134
330
1F
100
AcDbEntity
  8
Default
100
AcDbBlockReference
  2
GDimGGroup34
 10
0.0
 20
0.0
 30
0.0
  0
INSERT
  5
13A
330
1F
100
AcDbEntity
  8
Default
100
AcDbBlockReference
  2
GDimGGroup35
 10
0.0
 20
0.0
 30
0.0
  0
INSERT
  5
140
330
1F
100
AcDbEntity
  8
Default
100
AcDbBlockReference
  2
GDimGGroup36
 10
0.0
 20
0.0
 30
0.0
  0
INSERT
  5
146
330
1F
100
AcDbEntity
  8
Default
100
AcDbBlockReference
  2
GDimGGroup37
 10
0.0
 20
0.0
 30
0.0
  0
INSERT
  5
14C
330
1F
100
AcDbEntity
  8
Default
100
AcDbBlockReference
  2
GDimGGroup38
 10
0.0
 20
0.0
 30
0.0
  0
INSERT
  5
152
330
1F
100
AcDbEntity
  8
Default
100
AcDbBlockReference
  2
GDimGGroup39
 10
0.0
 20
0.0
 30
0.0
  0
INSERT
  5
158
330
1F
100
AcDbEntity
  8
Default
100
AcDbBlockReference
  2
GDimGGroup40
 10
0.0
 20
0.0
 30
0.0
  0
INSERT
  5
15E
330
1F
100
AcDbEntity
  8
Default
100
AcDbBlockReference
  2
GDimGGroup41
 10
0.0
 20
0.0
 30
0.0
  0
INSERT
  5
164
330
1F
100
AcDbEntity
  8
Default
100
AcDbBlockReference
  2
GDimGGroup42
 10
0.0
 20
0.0
 30
0.0
  0
DIMENSION
  5
16F
330
1F
100
AcDbEntity
  8
Default
  6
Continuous
 62
     7
 48
25.4
100
AcDbDimension
  2
DMBLK39
 10
275.912062392
 20
206.6534569205
 30
0.0
 11
254.3437101639
 21
214.0986628405
 31
0.0
 70
   163
  1
\A1;<>
 71
     5
 42
-1.0
  3
ANSImm
100
AcDbDiametricDimension
 15
272.3378365855
 25
208.4492603296
 35
0.0
 40
0.0
  0
LINE
  5
17A
330
1F
100
AcDbEntity
  8
Default
  6
Continuous
 62
     7
 48
25.4
100
AcDbLine
 10
10.0
 20
10.0
 30
0.0
 11
410.0
 21
10.0
 31
0.0
  0
LINE
  5
17B
330
1F
100
AcDbEntity
  8
Default
  6
Continuous
 62
     7
 48
25.4
100
AcDbLine
 10
410.0
 20
10.0
 30
0.0
 11
410.0
 21
287.0
 31
0.0
  0
LINE
  5
17C
330
1F
100
AcDbEntity
  8
Default
  6
Continuous
 62
     7
 48
25.4
100
AcDbLine
 10
410.0
 20
287.0
 30
0.0
 11
10.0
 21
287.0
 31
0.0
  0
LINE
  5
17D
330
1F
100
AcDbEntity
  8
Default
  6
Continuous
 62
     7
 48
25.4
100
AcDbLine
 10
10.0
 20
287.0
 30
0.0
 11
10.0
 21
10.0
 31
0.0
  0
LINE
  5
17E
330
1F
100
AcDbEntity
  8
Default
  6
Continuous
 62
     7
 48
25.4
100
AcDbLine
 10
325.4637339982
 20
11.2380177176
 30
0.0
 11
325.4637339982
 21
10.0
 31
0.0
  0
LINE
  5
17F
330
1F
100
AcDbEntity
  8
Default
  6
Continuous
 62
     7
 48
25.4
100
AcDbLine
 10
325.4637339982
 20
40.0316070918
 30
0.0
 11
410.0
 21
40.0316070918
 31
0.0
  0
LINE
  5
180
330
1F
100
AcDbEntity
  8
Default
  6
Continuous
 62
     7
 48
25.4
100
AcDbLine
 10
325.4637339982
 20
32.4051969332
 30
0.0
 11
410.0
 21
32.4051969332
 31
0.0
  0
LINE
  5
181
330
1F
100
AcDbEntity
  8
Default
  6
Continuous
 62
     7
 48
25.4
100
AcDbLine
 10
325.4637339982
 20
32.4051969332
 30
0.0
 11
325.4637339982
 21
24.7751969332
 31
0.0
  0
LINE
  5
182
330
1F
100
AcDbEntity
  8
Default
  6
Continuous
 62
     7
 48
25.4
100
AcDbLine
 10
325.4637339982
 20
24.7751969332
 30
0.0
 11
410.0
 21
24.7751969332
 31
0.0
  0
LINE
  5
183
330
1F
100
AcDbEntity
  8
Default
  6
Continuous
 62
     7
 48
25.4
100
AcDbLine
 10
367.7318669991
 20
40.0316070918
 30
0.0
 11
367.7318669991
 21
24.7751969332
 31
0.0
  0
LINE
  5
184
330
1F
100
AcDbEntity
  8
Default
  6
Continuous
 62
     7
 48
25.4
100
AcDbLine
 10
325.4637339982
 20
40.0316070918
 30
0.0
 11
325.4637339982
 21
47.6316070918
 31
0.0
  0
LINE
  5
185
330
1F
100
AcDbEntity
  8
Default
  6
Continuous
 62
     7
 48
25.4
100
AcDbLine
 10
325.4637339982
 20
47.6316070918
 30
0.0
 11
410.0
 21
47.6316070918
 31
0.0
  0
LINE
  5
186
330
1F
100
AcDbEntity
  8
Default
  6
Continuous
 62
     7
 48
25.4
100
AcDbLine
 10
367.7318669991
 20
47.6316070918
 30
0.0
 11
367.7318669991
 21
40.0316070918
 31
0.0
  0
LINE
  5
187
330
1F
100
AcDbEntity
  8
Default
  6
Continuous
 62
     7
 48
25.4
100
AcDbLine
 10
325.4637339982
 20
10.0
 30
0.0
 11
325.4637339982
 21
65.5567349695
 31
0.0
  0
LINE
  5
188
330
1F
100
AcDbEntity
  8
Default
  6
Continuous
 62
     7
 48
25.4
100
AcDbLine
 10
325.4637339982
 20
65.5567349695
 30
0.0
 11
410.0
 21
65.5567349695
 31
0.0
  0
TEXT
  5
18A
330
1F
100
AcDbEntity
  8
Default
  6
Continuous
 62
     7
 48
25.4
100
AcDbText
 10
350.353416664
 20
56.1305048308
 30
0.0
 40
7.0
  1
CNC
  7
SEACAD_arial_ttfB
 11
350.353416664
 21
63.1305048308
 31
0.0
100
AcDbText
 73
     3
  0
TEXT
  5
18B
330
1F
100
AcDbEntity
  8
Default
  6
Continuous
 62
     7
 48
25.4
100
AcDbText
 10
371.1099731482
 20
58.3401836879
 30
0.0
 40
3.5
  1
4
  7
SEACAD_arial_ttfB
 11
371.1099731482
 21
61.8401836879
 31
0.0
100
AcDbText
 73
     3
  0
TEXT
  5
18C
330
1F
100
AcDbEntity
  8
Default
  6
Continuous
 62
     7
 48
25.4
100
AcDbText
 10
374.9659342342
 20
58.2581419627
 30
0.0
 40
3.5
  1
PC
  7
SEACAD_arial_ttfB
 11
374.9659342342
 21
61.7581419627
 31
0.0
100
AcDbText
 73
     3
  0
TEXT
  5
18D
330
1F
100
AcDbEntity
  8
Default
  6
Continuous
 62
     7
 48
25.4
100
AcDbText
 10
345.9515800357
 20
53.8711591965
 30
0.0
 40
1.5
  1
Integration Solutions for CNC Projects
  7
SEACAD_arial_ttfB
 11
345.9515800357
 21
55.3711591965
 31
0.0
100
AcDbText
 73
     3
  0
TEXT
  5
18E
330
1F
100
AcDbEntity
  8
Default
  6
Continuous
 62
     7
 48
25.4
100
AcDbText
 10
345.5949966004
 20
50.4024410758
 30
0.0
 40
2.7
  1
http://www.cnc4pc.com
  7
SEACAD_arial_ttfB
 11
345.5949966004
 21
53.1024410758
 31
0.0
100
AcDbText
 73
     3
  0
TEXT
  5
18F
330
1F
100
AcDbEntity
  8
Default
  6
Continuous
 62
     7
 48
25.4
100
AcDbText
 10
325.9536204989
 20
43.0242100897
 30
0.0
 40
2.5
  1
Designed :
  7
SEACAD_arial_ttfI
 11
325.9536204989
 21
45.5242100897
 31
0.0
100
AcDbText
 73
     3
  0
TEXT
  5
190
330
1F
100
AcDbEntity
  8
Default
  6
Continuous
 62
     7
 48
25.4
100
AcDbText
 10
367.7436605961
 20
42.8983364749
 30
0.0
 40
2.5
  1
Date :
  7
SEACAD_arial_ttfI
 11
367.7436605961
 21
45.3983364749
 31
0.0
100
AcDbText
 73
     3
  0
TEXT
  5
191
330
1F
100
AcDbEntity
  8
Default
  6
Continuous
 62
     7
 48
25.4
100
AcDbText
 10
325.5759996546
 20
34.9682987456
 30
0.0
 40
2.5
  1
Revised :
  7
SEACAD_arial_ttfI
 11
325.5759996546
 21
37.4682987456
 31
0.0
100
AcDbText
 73
     3
  0
TEXT
  5
192
330
1F
100
AcDbEntity
  8
Default
  6
Continuous
 62
     7
 48
25.4
100
AcDbText
 10
367.7436605961
 20
34.8424251309
 30
0.0
 40
2.5
  1
Date :
  7
SEACAD_arial_ttfI
 11
367.7436605961
 21
37.3424251309
 31
0.0
100
AcDbText
 73
     3
  0
TEXT
  5
193
330
1F
100
AcDbEntity
  8
Default
  6
Continuous
 62
     7
 48
25.4
100
AcDbText
 10
325.5759996546
 20
27.5417554753
 30
0.0
 40
2.5
  1
Item :
  7
SEACAD_arial_ttfI
 11
325.5759996546
 21
30.0417554753
 31
0.0
100
AcDbText
 73
     3
  0
TEXT
  5
194
330
1F
100
AcDbEntity
  8
Default
  6
Continuous
 62
     7
 48
25.4
100
AcDbText
 10
367.7436605961
 20
27.5417554753
 30
0.0
 40
2.5
  1
Ver. :
  7
SEACAD_arial_ttfI
 11
367.7436605961
 21
30.0417554753
 31
0.0
100
AcDbText
 73
     3
  0
TEXT
  5
195
330
1F
100
AcDbEntity
  8
Default
  6
Continuous
 62
     7
 48
25.4
100
AcDbText
 10
325.9536204989
 20
20.9963275083
 30
0.0
 40
2.5
  1
Description :
  7
SEACAD_arial_ttfI
 11
325.9536204989
 21
23.4963275083
 31
0.0
100
AcDbText
 73
     3
  0
ENDSEC
  0
SECTION
  2
OBJECTS
  0
DICTIONARY
  5
C
330
0
100
AcDbDictionary
281
     1
  3
ACAD_GROUP
350
D
  3
ACAD_LAYOUT
350
1A
  3
ACAD_MLINESTYLE
350
17
  3
ACAD_PLOTSETTINGS
350
19
  3
ACAD_PLOTSTYLENAME
350
E
  0
DICTIONARY
  5
D
102
{ACAD_REACTORS
330
C
102
}
330
C
100
AcDbDictionary
281
     1
  0
DICTIONARY
  5
1A
102
{ACAD_REACTORS
330
C
102
}
330
C
100
AcDbDictionary
281
     1
  3
Layout1
350
1E
  3
Model
350
22
  0
DICTIONARY
  5
17
102
{ACAD_REACTORS
330
C
102
}
330
C
100
AcDbDictionary
281
     1
  3
Standard
350
18
  0
DICTIONARY
  5
19
102
{ACAD_REACTORS
330
C
102
}
330
C
100
AcDbDictionary
281
     1
  0
ACDBDICTIONARYWDFLT
  5
E
102
{ACAD_REACTORS
330
C
102
}
330
C
100
AcDbDictionary
281
     1
  3
Normal
350
F
100
AcDbDictionaryWithDefault
340
F
  0
LAYOUT
  5
1E
102
{ACAD_REACTORS
330
1A
102
}
330
1A
100
AcDbPlotSettings
  1

  2

  4

  6

 40
0.0
 41
0.0
 42
0.0
 43
0.0
 44
0.0
 45
0.0
 46
0.0
 47
0.0
 48
0.0
 49
0.0
140
0.0
141
0.0
142
1.0
143
1.0
 70
   688
 72
     0
 73
     0
 74
     5
  7

 75
    16
147
1.0
148
0.0
149
0.0
100
AcDbLayout
  1
Layout1
 70
     1
 71
     1
 10
0.0
 20
0.0
 11
420.0
 21
297.0
 12
0.0
 22
0.0
 32
0.0
 14
0.0
 24
0.0
 34
0.0
 15
420.0
 25
297.0
 35
0.0
146
0.0
 13
0.0
 23
0.0
 33
0.0
 16
1.0
 26
0.0
 36
0.0
 17
0.0
 27
1.0
 37
0.0
 76
     0
330
1B
  0
LAYOUT
  5
22
102
{ACAD_REACTORS
330
1A
102
}
330
1A
100
AcDbPlotSettings
  1

  2

  4

  6

 40
0.0
 41
0.0
 42
0.0
 43
0.0
 44
0.0
 45
0.0
 46
0.0
 47
0.0
 48
0.0
 49
0.0
140
0.0
141
0.0
142
1.0
143
1.0
 70
  1712
 72
     0
 73
     0
 74
     0
  7

 75
     0
147
1.0
148
0.0
149
0.0
100
AcDbLayout
  1
Model
 70
     1
 71
     0
 10
0.0
 20
0.0
 11
420.0
 21
297.0
 12
0.0
 22
0.0
 32
0.0
 14
0.0
 24
0.0
 34
0.0
 15
420.0
 25
297.0
 35
0.0
146
0.0
 13
0.0
 23
0.0
 33
0.0
 16
1.0
 26
0.0
 36
0.0
 17
0.0
 27
1.0
 37
0.0
 76
     0
330
1F
  0
MLINESTYLE
  5
18
102
{ACAD_REACTORS
330
17
102
}
330
17
100
AcDbMlineStyle
  2
Standard
 70
     0
  3

 62
   256
 51
90.0
 52
90.0
 71
     2
 49
0.5
 62
   256
  6
BYLAYER
 49
-0.5
 62
   256
  6
BYLAYER
  0
ACDBPLACEHOLDER
  5
F
102
{ACAD_REACTORS
330
E
102
}
330
E
  0
ENDSEC
  0
EOF
